<?xml version="1.0" standalone="no"?>
<!DOCTYPE svg PUBLIC "-//W3C//DTD SVG 1.1//EN" "http://www.w3.org/Graphics/SVG/1.1/DTD/svg11.dtd" >
<svg xmlns="http://www.w3.org/2000/svg">
<metadata></metadata>
<defs>
<font id="estrangelo_edessaregular" horiz-adv-x="1034" >
<font-face units-per-em="2048" ascent="1434" descent="-614" />
<missing-glyph horiz-adv-x="424" />
<glyph horiz-adv-x="2048" />
<glyph horiz-adv-x="2048" />
<glyph unicode="&#xd;" horiz-adv-x="1024" />
<glyph unicode=" "  horiz-adv-x="424" />
<glyph unicode="&#x09;" horiz-adv-x="424" />
<glyph unicode="&#xa0;" horiz-adv-x="424" />
<glyph unicode="!" horiz-adv-x="565" d="M156 100q0 25 9.5 47t27 38.5t40.5 26t50 9.5q26 0 49 -9.5t40.5 -26t27.5 -38.5t10 -47q0 -24 -10 -45t-27.5 -37.5t-40.5 -26t-49 -9.5q-27 0 -50 9.5t-40.5 26t-27 37.5t-9.5 45zM172 1294h217l-41 -940h-137z" />
<glyph unicode="&#x22;" horiz-adv-x="750" d="M76 1294h221l-37 -497h-145zM451 1294h223l-39 -497h-146z" />
<glyph unicode="#" horiz-adv-x="1171" d="M61 399v142h250l41 209h-231v141h258l76 403h149l-78 -403h211l78 403h146l-78 -403h227v-141h-254l-41 -209h238v-142h-265l-75 -399h-150l78 399h-207l-76 -399h-147l74 399h-224zM461 541h207l41 209h-209z" />
<glyph unicode="$" d="M125 928q0 65 25.5 117t70 90.5t105.5 63.5t133 34v221h139v-215q65 -5 127.5 -20.5t124.5 -38.5v-176q-25 11 -55 23t-63 22t-67 18t-67 12v-354q68 -27 126 -58.5t101.5 -71.5t68 -90t24.5 -114q0 -63 -20.5 -118t-61 -98t-100.5 -73t-138 -43v-243h-139v237 q-47 2 -92 9.5t-86 19.5t-76 28t-62 35v191q29 -21 67.5 -42.5t81 -38.5t86 -29t81.5 -15v389q-77 27 -138.5 57t-105 68t-67 87.5t-23.5 115.5zM313 934q0 -63 40.5 -101t105.5 -61v305q-66 -14 -106 -54t-40 -89zM598 223q63 17 96 59t33 101q0 33 -8.5 58t-24.5 45 t-40 35.5t-56 29.5v-328z" />
<glyph unicode="%" horiz-adv-x="1552" d="M84 956q0 82 22.5 147.5t63.5 111.5t99.5 71t131.5 25t129 -23t93.5 -66t57 -105t19.5 -140q0 -79 -23 -144t-64.5 -111t-100 -71.5t-129.5 -25.5q-67 0 -122.5 24t-94.5 67.5t-60.5 104.5t-21.5 135zM248 0l858 1294h184l-856 -1294h-186zM250 963q0 -97 37.5 -152 t103.5 -55q68 0 107 57.5t39 159.5q0 99 -38 154t-104 55q-68 0 -106.5 -57t-38.5 -162zM852 313q0 81 22.5 147t64 112.5t100.5 72t132 25.5q72 0 127.5 -23.5t93 -67t57 -106.5t19.5 -141t-22.5 -142t-63.5 -110.5t-99.5 -72t-129.5 -25.5q-67 0 -122.5 24t-95.5 67.5 t-61.5 104.5t-21.5 135zM1018 319q0 -97 38.5 -151.5t106.5 -54.5q66 0 104 57.5t38 159.5q0 99 -37 154t-103 55q-68 0 -107.5 -57t-39.5 -163z" />
<glyph unicode="&#x26;" horiz-adv-x="1411" d="M96 340q0 78 23 140.5t65 112t101.5 88.5t132.5 71q-34 55 -56 115t-22 132q0 71 25.5 128.5t70 98.5t105.5 63t133 22q80 0 146 -18.5t114 -49.5v-166q-25 17 -56.5 32t-64 26.5t-64 18.5t-57.5 7q-51 0 -82 -17.5t-47.5 -43t-22 -53.5t-5.5 -48q0 -52 20 -108t70 -131 q23 -35 53.5 -79.5t65.5 -93.5t73 -100.5t76 -99.5q29 47 52 98t40 113h-131v147h440v-147h-139q-12 -43 -29 -88t-37.5 -89t-45 -85.5t-52.5 -77.5q51 -62 96.5 -92.5t98.5 -30.5q26 0 55.5 4t73.5 17v-142q-35 -17 -74.5 -24.5t-81.5 -7.5q-51 0 -92 10.5t-76 30t-65 46.5 t-58 60q-37 -33 -78 -60t-88 -46.5t-102 -30t-121 -10.5q-92 0 -163.5 27t-120 75t-74 113.5t-25.5 142.5zM295 348q0 -49 14 -88t40 -66.5t63 -42t82 -14.5q77 0 149 30.5t131 84.5q-72 93 -144 190.5t-138 194.5q-58 -30 -96 -63.5t-60.5 -70t-31.5 -75.5t-9 -80z" />
<glyph unicode="'" horiz-adv-x="365" d="M72 1294h221l-37 -497h-145z" />
<glyph unicode="(" horiz-adv-x="598" d="M117 496q0 462 284 798h174q-133 -179 -197.5 -376t-64.5 -420q0 -217 65 -412.5t195 -372.5h-172q-284 324 -284 783z" />
<glyph unicode=")" horiz-adv-x="598" d="M23 1294h174q284 -336 284 -798q0 -459 -284 -783h-172q130 177 195 372.5t65 412.5q0 223 -64.5 420t-197.5 376z" />
<glyph unicode="*" horiz-adv-x="823" d="M53 911l43 168l238 -78l-15 293h185l-15 -293l238 78l43 -168l-227 -47l182 -188l-143 -115l-170 225l-172 -225l-146 115l182 188z" />
<glyph unicode="+" d="M80 475v160h358v348h160v-348h356v-160h-356v-350h-160v350h-358z" />
<glyph unicode="," horiz-adv-x="469" d="M29 -268q18 54 34.5 114.5t30.5 121.5t26 120t19 109h230q-14 -51 -37 -111t-49.5 -121.5t-54.5 -121.5t-52 -111h-147z" />
<glyph unicode="-" horiz-adv-x="735" d="M131 352v170h473v-170h-473z" />
<glyph unicode="." horiz-adv-x="451" d="M90 117q0 27 10.5 49.5t29 39.5t43 26.5t52.5 9.5q29 0 53.5 -9.5t42.5 -26.5t28.5 -39.5t10.5 -49.5q0 -26 -10.5 -49t-28.5 -40.5t-42.5 -27.5t-53.5 -10q-28 0 -52.5 10t-43 27.5t-29 40.5t-10.5 49z" />
<glyph unicode="/" horiz-adv-x="799" d="M-4 0l602 1294h205l-602 -1294h-205z" />
<glyph unicode="0" d="M78 621q0 166 27.5 294.5t84 216.5t141.5 133.5t199 45.5q426 0 426 -660q0 -157 -30.5 -281.5t-88.5 -210.5t-141.5 -131.5t-189.5 -45.5q-105 0 -185 42.5t-134 124t-81.5 200.5t-27.5 272zM274 627q0 -246 62 -368t182 -122q119 0 180.5 124t61.5 376q0 261 -60 390.5 t-176 129.5q-124 0 -187 -131.5t-63 -398.5z" />
<glyph unicode="1" d="M184 813v191l391 294h123v-1298h-192v1051q-16 -14 -34.5 -29.5t-35.5 -28.5z" />
<glyph unicode="2" d="M133 997v181q29 27 68 51t84.5 42t96.5 29t105 11q87 0 157 -24.5t118.5 -70.5t75 -110.5t26.5 -144.5q0 -83 -20.5 -150.5t-57 -129t-86 -122t-108.5 -131.5l-219 -266h534v-162h-770v141l305 377q48 60 87.5 110t67.5 98t43 99t15 113q0 99 -48.5 154t-141.5 55 q-41 0 -87 -12.5t-90.5 -33.5t-85 -48t-69.5 -56z" />
<glyph unicode="3" d="M135 57v183q35 -24 75 -43.5t80 -33t78.5 -21t71.5 -7.5q129 0 189.5 60.5t60.5 164.5q0 52 -22.5 92t-64 67.5t-98.5 41.5t-126 14h-96v164h61q77 0 134 17.5t94.5 47.5t56 71t18.5 88q0 51 -15.5 87t-42.5 59t-64 33.5t-81 10.5q-29 0 -65.5 -7t-76.5 -20.5t-80.5 -32 t-76.5 -42.5v174q72 45 151.5 65.5t166.5 20.5q91 0 162 -23t120 -66.5t75 -105t26 -139.5q0 -56 -18.5 -104.5t-50.5 -88t-76.5 -69.5t-96.5 -49q66 -12 119.5 -39t92 -66t59 -88t20.5 -104q0 -88 -32.5 -159.5t-92 -122t-142 -78t-182.5 -27.5q-89 0 -168.5 18.5 t-142.5 56.5z" />
<glyph unicode="4" d="M49 393q11 63 47.5 145t88.5 171t114.5 179t125 169.5t120 142.5t100.5 98h154v-813h186v-151h-186v-334h-191v334h-547zM246 485h362v500v31.5t2 36.5q-5 -5 -7 -10.5t-7 -10.5q-15 -15 -41 -46t-57.5 -73t-67 -93t-69 -107t-63.5 -114t-52 -114z" />
<glyph unicode="5" d="M150 653v641h700v-164h-524v-333q15 2 33 4t37.5 3.5t38.5 2t34 0.5q95 0 176 -26t139.5 -75.5t91.5 -122t33 -165.5q0 -102 -37 -183t-101 -137.5t-148 -86t-179 -29.5q-86 0 -161.5 18t-130.5 49v180q27 -18 62.5 -34.5t74 -29t77 -20.5t72.5 -8q62 0 112.5 20t86.5 56 t56 86t20 109q0 64 -23 111.5t-61.5 79t-89 46.5t-105.5 14q-68 0 -131 -17t-113 -42z" />
<glyph unicode="6" d="M106 420q0 98 32 210t90 226.5t139.5 226.5t179.5 211h213q-59 -68 -115 -138.5t-105 -140t-88 -135.5t-65 -126q29 6 67 11t85 5q80 0 152.5 -24t127 -70.5t87 -115.5t32.5 -159t-30 -167t-85 -133t-132 -87.5t-171 -31.5q-100 0 -177.5 31t-130 88t-79.5 138t-27 181z M299 414q0 -69 16.5 -120.5t46 -86t70 -51.5t88.5 -17q49 0 89.5 17t69 49t44.5 78.5t16 105.5q0 62 -18.5 106t-51 72.5t-76 42t-93.5 13.5q-48 0 -93 -11.5t-77 -25.5q-16 -34 -23.5 -80.5t-7.5 -91.5z" />
<glyph unicode="7" d="M125 1130v164h795l38 -53q-83 -149 -162 -300t-151 -305.5t-134.5 -313t-113.5 -322.5h-196v45q29 84 67 179.5t82.5 195.5t92.5 200t95.5 193t93.5 174t85 143h-592z" />
<glyph unicode="8" d="M96 344q0 119 63.5 200t176.5 134q-45 20 -83 51t-65.5 70.5t-43 86.5t-15.5 99q0 72 28 132t78.5 103t121 67t155.5 24q81 0 150 -22t119.5 -64t79 -102t28.5 -136q0 -51 -14.5 -95t-40 -82t-61.5 -70t-79 -58q123 -51 179.5 -130t56.5 -196q0 -84 -32 -152.5 t-88.5 -118t-133.5 -76.5t-166 -27q-83 0 -158 22.5t-132 67.5t-90.5 113t-33.5 159zM293 352q0 -50 16 -90t44.5 -67.5t68.5 -42.5t88 -15q54 0 96 17.5t70.5 47.5t43.5 69.5t15 82.5q0 37 -11 74t-37.5 69.5t-70.5 59t-110 41.5q-48 -12 -87 -35t-67 -55t-43.5 -71.5 t-15.5 -84.5zM326 975q0 -39 15.5 -74t41.5 -63t61 -47.5t74 -28.5q47 13 80 34.5t54 49.5t30.5 62t9.5 71q0 39 -12.5 71.5t-36 55.5t-57.5 36t-76 13q-84 0 -134 -46.5t-50 -133.5z" />
<glyph unicode="9" d="M96 893q0 90 30 166.5t85.5 132.5t133 87.5t171.5 31.5q100 0 177 -30.5t129.5 -87.5t80 -138t27.5 -181q0 -92 -33 -201.5t-91.5 -225t-138.5 -230.5t-175 -217h-226q62 70 119 140t106.5 138.5t89 135t64.5 127.5q-29 -8 -66 -13.5t-83 -5.5q-84 0 -157 24t-127 71.5 t-85 116.5t-31 159zM297 907q0 -62 18.5 -106.5t50.5 -73t75.5 -42t93.5 -13.5q48 0 93 10.5t79 24.5q14 35 21 78t7 96q0 68 -16.5 118.5t-45.5 85t-69 51.5t-88 17q-49 0 -89.5 -16.5t-69 -48t-44.5 -77t-16 -104.5z" />
<glyph unicode=":" horiz-adv-x="451" d="M90 117q0 27 10.5 49.5t29 39.5t43 26.5t52.5 9.5q29 0 53.5 -9.5t42.5 -26.5t28.5 -39.5t10.5 -49.5q0 -26 -10.5 -49t-28.5 -40.5t-42.5 -27.5t-53.5 -10q-28 0 -52.5 10t-43 27.5t-29 40.5t-10.5 49zM90 705q0 25 10.5 48t29 40t43 27.5t52.5 10.5q29 0 53.5 -10.5 t42.5 -27.5t28.5 -40t10.5 -48q0 -27 -10.5 -50t-28.5 -39.5t-42.5 -26t-53.5 -9.5q-28 0 -52.5 9.5t-43 26t-29 39.5t-10.5 50z" />
<glyph unicode=";" horiz-adv-x="469" d="M29 -268q18 54 34.5 114.5t30.5 121.5t26 120t19 109h230q-14 -51 -37 -111t-49.5 -121.5t-54.5 -121.5t-52 -111h-147zM109 705q0 25 10.5 48t28.5 40t43 27.5t53 10.5t52.5 -10.5t42.5 -27.5t28 -40t10 -48q0 -27 -10 -50t-28 -39.5t-42.5 -26t-52.5 -9.5t-53 9.5 t-43 26t-28.5 39.5t-10.5 50z" />
<glyph unicode="&#x3c;" d="M111 504v96l811 444v-184l-555 -303l555 -264v-182z" />
<glyph unicode="=" d="M90 307v160h858v-160h-858zM90 643v160h858v-160h-858z" />
<glyph unicode="&#x3e;" d="M111 111v182l555 268l-555 299v184l811 -444v-96z" />
<glyph unicode="?" horiz-adv-x="825" d="M72 1065v174q75 37 152.5 54.5t158.5 17.5q84 0 152.5 -22.5t117 -64.5t75 -102t26.5 -135q0 -49 -13 -94t-40 -89t-68 -88.5t-98 -92.5q-38 -34 -61 -62.5t-36.5 -55.5t-20 -53.5t-11.5 -56.5l-9 -59h-127l-12 55q-3 14 -4.5 35t-1.5 35q0 69 36 128t107 116 q45 38 77 71t52.5 65t29.5 67t9 77q0 82 -50 126t-138 44q-66 0 -146 -22.5t-157 -67.5zM209 117q0 27 10.5 49.5t28.5 39.5t43 26.5t53 9.5t52 -9.5t42 -26.5t28.5 -39.5t10.5 -49.5q0 -26 -10.5 -49t-28.5 -40.5t-42 -27.5t-52 -10t-53 10t-43 27.5t-28.5 40.5t-10.5 49z " />
<glyph unicode="@" horiz-adv-x="1595" d="M102 520q0 169 52.5 314t150.5 251t237.5 166t313.5 60q140 0 257 -44.5t201.5 -128.5t131.5 -205t47 -274q0 -84 -19.5 -166.5t-58 -147t-96 -104.5t-133.5 -40q-45 0 -80.5 12t-63 32t-46 45t-29.5 50h-2q-27 -29 -58 -54.5t-65.5 -44t-72.5 -29.5t-79 -11 q-70 0 -123.5 25t-90.5 70.5t-55.5 109t-17.5 141.5q2 90 30 166t80 131t127 86t171 31q44 0 86.5 -4t80 -10t69 -13t53.5 -14v-494q0 -21 7 -40t19 -32.5t28.5 -21.5t35.5 -8q38 0 68.5 26.5t51.5 72.5t32.5 108.5t11.5 134.5q0 125 -36.5 222t-101.5 163t-155 100.5 t-197 34.5q-147 0 -261.5 -50t-193 -138.5t-120 -209.5t-41.5 -262q0 -131 34.5 -235.5t103.5 -177t172 -111.5t239 -39q100 0 197.5 21t174.5 53v-111q-78 -40 -175.5 -64t-213.5 -24q-161 0 -287 46t-213 133.5t-132.5 214.5t-45.5 288zM561 547q0 -113 46.5 -167 t121.5 -54q62 0 117.5 32.5t101.5 83.5v385q-25 7 -56 12t-71 5q-72 0 -121.5 -27t-80.5 -70t-44.5 -96t-13.5 -104z" />
<glyph unicode="A" horiz-adv-x="1212" d="M6 0l502 1294h190l508 -1294h-211l-145 371h-498l-135 -371h-211zM414 543h377l-164 440q-5 14 -12.5 40.5t-12.5 55.5h-4q-5 -31 -12.5 -57.5t-14.5 -44.5z" />
<glyph unicode="B" horiz-adv-x="1067" d="M178 14v1274q59 5 142.5 7.5t171.5 2.5q102 0 182.5 -21.5t136 -62.5t84.5 -101t29 -138q0 -51 -14 -95.5t-38.5 -81.5t-58.5 -66t-74 -48q53 -13 99.5 -38.5t81 -63t54 -86.5t19.5 -109q0 -87 -28.5 -159t-89 -124t-154 -81t-223.5 -29q-33 0 -76.5 1.5t-88 4t-85.5 6.5 t-70 8zM375 158q32 -3 69.5 -4.5t83.5 -1.5q125 0 195 60.5t70 168.5q0 105 -71 155t-210 50h-137v-428zM375 743h82q130 0 198 56t68 162q0 36 -12 68.5t-39.5 57.5t-71 39.5t-106.5 14.5q-39 0 -67.5 -1t-51.5 -3v-394z" />
<glyph unicode="C" horiz-adv-x="1214" d="M113 633q0 148 49 272.5t135.5 214.5t205 140.5t257.5 50.5q47 0 95 -5.5t94 -15t87.5 -22t75.5 -27.5v-176q-35 15 -78 30t-89 26.5t-94 18.5t-93 7q-94 0 -174.5 -36.5t-139.5 -103.5t-93 -162t-34 -212q0 -109 31.5 -198.5t89 -153.5t138 -99t178.5 -35q91 0 180.5 24 t171.5 69v-177q-75 -40 -168 -60.5t-203 -20.5q-137 0 -251.5 48t-197 134t-128 205.5t-45.5 263.5z" />
<glyph unicode="D" horiz-adv-x="1384" d="M178 0v1294h354q176 0 313.5 -39.5t232.5 -118t144.5 -195t49.5 -269.5q0 -151 -55.5 -275t-155.5 -212.5t-239 -136.5t-306 -48h-338zM375 166h135q128 0 231.5 35.5t176.5 101t112 159t39 208.5q0 119 -37.5 205t-107 142t-170 82.5t-226.5 26.5h-153v-960z" />
<glyph unicode="E" horiz-adv-x="954" d="M178 0v1294h645v-168h-450v-393h452v-166h-452v-401h452v-166h-647z" />
<glyph unicode="F" horiz-adv-x="920" d="M174 0v1294h645v-168h-450v-389h452v-166h-452v-571h-195z" />
<glyph unicode="G" horiz-adv-x="1386" d="M113 631q0 160 53 286t145 213.5t217.5 134t270.5 46.5q120 0 231.5 -30t202.5 -87l-2 -199q-46 34 -99 61.5t-109.5 47t-113 30.5t-110.5 11q-111 0 -200.5 -36.5t-152 -103t-96 -159.5t-33.5 -205q0 -108 29 -198.5t87.5 -156t145.5 -102.5t203 -37q65 0 133 14.5 t119 39.5v282h-289v166h486v-551q-103 -59 -222.5 -87.5t-250.5 -28.5q-152 0 -272 49t-203 135.5t-126.5 205.5t-43.5 259z" />
<glyph unicode="H" horiz-adv-x="1454" d="M178 0v1294h197v-553h704v553h197v-1294h-197v575h-704v-575h-197z" />
<glyph unicode="I" horiz-adv-x="553" d="M178 0v1294h197v-1294h-197z" />
<glyph unicode="J" horiz-adv-x="684" d="M53 12v166q34 -14 74 -22.5t68 -8.5q37 0 61.5 13t39.5 38t21.5 61.5t6.5 84.5v950h194v-964q0 -79 -17.5 -143.5t-54.5 -110t-93 -70t-134 -24.5q-49 0 -90.5 8t-75.5 22z" />
<glyph unicode="K" horiz-adv-x="1149" d="M174 0v1294h197l2 -569q21 26 44 52.5t36 43.5l411 473h238l-565 -637l612 -657h-254l-461 498q-14 14 -31 32.5t-32 36.5v-567h-197z" />
<glyph unicode="L" horiz-adv-x="868" d="M178 0v1294h197v-1128h424v-166h-621z" />
<glyph unicode="M" horiz-adv-x="1698" d="M137 0l90 1294h211l373 -954q5 -14 11 -32.5t11 -38.5t9.5 -40t7.5 -36q3 16 8 37t10.5 42t11.5 40t11 32l371 950h219l59 -1294h-182l-41 846q-1 12 -1.5 33t-1 44.5t-1 46.5t-0.5 38q-6 -23 -13.5 -48.5t-14.5 -48t-12.5 -40t-8.5 -25.5l-326 -846h-176l-332 846 q-4 10 -10.5 27.5t-13.5 40t-14.5 47t-12.5 47.5q0 -17 -0.5 -39.5t-1.5 -46.5t-2 -46.5t-2 -39.5l-54 -836h-182z" />
<glyph unicode="N" horiz-adv-x="1483" d="M178 0v1294h207l604 -811q15 -21 35 -50.5t39 -60t35.5 -58t25.5 -44.5v1024h181v-1294h-193l-633 840q-7 8 -23.5 32.5t-35 53.5t-35.5 57t-25 43v-1026h-182z" />
<glyph unicode="O" horiz-adv-x="1448" d="M113 633q0 154 42.5 279.5t123.5 214t197.5 136.5t264.5 48q135 0 245 -47t187.5 -132.5t119.5 -204.5t42 -263q0 -157 -42.5 -283.5t-122 -215t-193.5 -136t-258 -47.5q-138 0 -250 46.5t-191 132t-122 205.5t-43 267zM317 645q0 -112 28 -204t80.5 -157t127 -101 t166.5 -36q98 0 175 33.5t130 97t81 156t28 209.5q0 118 -26 211.5t-77 158.5t-126 99.5t-173 34.5q-94 0 -170.5 -36.5t-130.5 -102.5t-83.5 -158.5t-29.5 -204.5z" />
<glyph unicode="P" horiz-adv-x="1049" d="M178 0v1294h264q114 0 209 -17.5t164 -59t107.5 -109t38.5 -168.5q0 -92 -36.5 -168.5t-109.5 -132t-183 -86t-257 -31.5v-522h-197zM375 692h63q151 0 235.5 60.5t84.5 177.5q0 51 -17.5 88t-55.5 61t-97.5 35.5t-143.5 11.5h-69v-434z" />
<glyph unicode="Q" horiz-adv-x="1448" d="M113 633q0 154 42.5 279.5t123.5 214t197.5 136.5t264.5 48q135 0 245 -47t187.5 -132.5t119.5 -204.5t42 -263q0 -208 -69.5 -354.5t-200.5 -231.5l254 -225l-117 -125l-344 268q-32 -6 -66.5 -10t-72.5 -4q-138 0 -250 46.5t-191 132t-122 205.5t-43 267zM317 645 q0 -112 28 -204t80.5 -157t127 -101t166.5 -36q98 0 175 33.5t130 97t81 156t28 209.5q0 118 -26 211.5t-77 158.5t-126 99.5t-173 34.5q-94 0 -170.5 -36.5t-130.5 -102.5t-83.5 -158.5t-29.5 -204.5z" />
<glyph unicode="R" horiz-adv-x="1087" d="M178 0v1294h293q103 0 192 -16.5t154.5 -56t103 -104.5t37.5 -163q0 -72 -25.5 -131t-67 -103t-95.5 -73.5t-111 -42.5l398 -604h-232l-360 571h-90v-571h-197zM375 731h96q136 0 208.5 57.5t72.5 159.5q0 93 -66.5 135.5t-204.5 42.5h-106v-395z" />
<glyph unicode="S" horiz-adv-x="987" d="M102 952q0 82 33 148.5t90 113t133.5 72t163.5 25.5q93 0 168 -17t137 -43v-180q-29 14 -67 27t-80 23.5t-84 17t-80 6.5q-53 0 -94 -13.5t-69.5 -37.5t-43 -57.5t-14.5 -73.5q0 -45 19 -77.5t54 -58t84.5 -47t110.5 -45.5q78 -31 139.5 -64.5t104 -77t65.5 -100 t23 -131.5q0 -79 -27.5 -148.5t-81 -121t-133 -81t-184.5 -29.5q-51 0 -101.5 6.5t-96 19t-84.5 29t-68 35.5v200q32 -23 75.5 -45.5t91.5 -40t95.5 -28.5t85.5 -11q58 0 101.5 14.5t73 41.5t44 64.5t14.5 82.5q0 51 -18.5 86t-52.5 61t-82 47t-107 44q-81 32 -144 64.5 t-106 74t-65.5 96t-22.5 129.5z" />
<glyph unicode="T" horiz-adv-x="1006" d="M78 1126v168h850v-168h-326v-1126h-196v1126h-328z" />
<glyph unicode="U" horiz-adv-x="1393" d="M168 506v788h197v-780q0 -92 24 -161.5t68.5 -116t107 -70t140.5 -23.5q73 0 133 22.5t102.5 67t66 112t23.5 157.5v792h195v-768q0 -137 -37 -240t-107 -171.5t-170 -103t-225 -34.5q-119 0 -214.5 33.5t-163 100t-104 165.5t-36.5 230z" />
<glyph unicode="V" horiz-adv-x="1198" d="M0 1294h211l321 -876q6 -16 17.5 -49t22.5 -67.5t19 -62.5t9 -36q1 5 5 20.5t10 36.5t13.5 45t14.5 46t12.5 40t8.5 27l329 876h205l-504 -1294h-198z" />
<glyph unicode="W" horiz-adv-x="1946" d="M29 1294h198l295 -925q10 -31 17 -62.5t10 -66.5h4q3 23 11.5 55t19.5 74l297 925h178l317 -936q8 -27 16 -55.5t11 -62.5h2q3 23 11.5 53.5t19.5 68.5l282 932h197l-410 -1294h-192l-316 913q-11 36 -18.5 66.5t-9.5 62.5h-4q-10 -63 -29 -127l-293 -915h-192z" />
<glyph unicode="X" horiz-adv-x="1180" d="M8 0l465 664l-440 630h235l213 -323q9 -13 23.5 -36t30.5 -47.5t30.5 -48t22.5 -38.5h4q7 15 22 39.5t31.5 50.5t31.5 48.5l21 31.5l224 323h223l-438 -618l460 -676h-231l-277 422q-3 5 -12.5 19.5t-20.5 31t-21 32t-15 23.5h-2q-3 -6 -10.5 -17.5t-16.5 -25.5t-19 -28 t-18 -25l-282 -432h-234z" />
<glyph unicode="Y" horiz-adv-x="1077" d="M-2 1294h219l270 -483q6 -10 13 -24l14.5 -29t14.5 -30.5t12 -27.5q5 13 11 28t12.5 30t13 28.5t12.5 22.5l282 485h207l-442 -749v-545h-197v539z" />
<glyph unicode="Z" horiz-adv-x="1139" d="M90 0v43l655 1083h-655v168h959v-34l-662 -1094h643v-166h-940z" />
<glyph unicode="[" horiz-adv-x="606" d="M154 -287v1581h405v-129l-213 -8v-1307l213 -8v-129h-405z" />
<glyph unicode="\" horiz-adv-x="799" d="M-4 1294h205l602 -1294h-205z" />
<glyph unicode="]" horiz-adv-x="606" d="M47 -158l213 8v1307l-213 8v129h406v-1581h-406v129z" />
<glyph unicode="^" horiz-adv-x="1030" d="M55 504l383 790h111l428 -790h-178l-303 559l-265 -559h-176z" />
<glyph unicode="_" horiz-adv-x="799" d="M0 -152h799v-137h-799v137z" />
<glyph unicode="`" horiz-adv-x="451" d="M37 1223v14h217q15 -32 34.5 -72.5t41 -82t43.5 -79t41 -63.5v-22h-105q-21 17 -47 41.5t-52.5 52.5t-53 58t-49.5 58.5t-41.5 53t-28.5 41.5z" />
<glyph unicode="a" horiz-adv-x="958" d="M86 233q0 134 102.5 205.5t303.5 71.5q30 0 59.5 -1.5t64.5 -4.5q0 91 -38 139.5t-125 48.5q-62 0 -126.5 -15.5t-127.5 -41.5v149q55 26 125.5 41t136.5 15q85 0 150 -16.5t109 -55t66.5 -101.5t22.5 -155v-317q0 -36 18.5 -53t38.5 -17t37 1.5t39 6.5v-115 q-25 -18 -61.5 -27t-79.5 -9q-37 0 -65 7.5t-48 21t-33.5 32.5t-21.5 43q-48 -44 -113 -74t-155 -30q-70 0 -122.5 19t-87 53t-52 79.5t-17.5 99.5zM283 240q0 -51 30.5 -83t85.5 -32q56 0 114 25t103 67v160q-23 2 -51 3t-59 1q-67 0 -110 -12t-68 -32t-35 -45t-10 -52z " />
<glyph unicode="b" horiz-adv-x="1067" d="M154 35v1259h192v-360q0 -13 -0.5 -34t-1 -43.5t-1.5 -43.5t-3 -35q21 13 49 24.5t59.5 19.5t65 13t64.5 5q93 0 166 -28.5t123.5 -80.5t77 -123.5t26.5 -158.5q0 -105 -34 -191t-96 -147t-150.5 -94t-198.5 -33q-49 0 -97.5 4.5t-93 12t-82.5 16.5t-65 18zM346 141 q28 -5 59 -9.5t68 -4.5q84 0 141.5 26.5t93.5 70t52 100t16 116.5q0 63 -17.5 110.5t-48 79.5t-73 48t-92.5 16q-22 0 -49.5 -4.5t-54.5 -12t-52 -18.5t-43 -24v-494z" />
<glyph unicode="c" horiz-adv-x="899" d="M96 403q0 108 36 189.5t97 136.5t143 83t173 28q66 0 137.5 -16.5t130.5 -53.5v-166q-63 40 -129.5 61t-138.5 21q-51 0 -97.5 -15.5t-81 -50t-55 -88.5t-20.5 -131q0 -70 19.5 -120.5t51.5 -83t74.5 -47.5t87.5 -15q89 0 157.5 25.5t131.5 62.5v-157q-60 -41 -135 -62.5 t-172 -21.5q-90 0 -165.5 28.5t-129.5 83t-84.5 132.5t-30.5 177z" />
<glyph unicode="d" horiz-adv-x="1083" d="M96 406q0 98 30 178t85.5 137t135 88t177.5 31q62 0 116 -14.5t97 -37.5v506h193v-1294h-185l-6 72q-23 -18 -53 -34t-65 -28.5t-73.5 -20t-78.5 -7.5q-81 0 -149 27.5t-118 81t-78 132.5t-28 183zM291 403q0 -70 17 -121t46.5 -84t68.5 -49t83 -16q38 0 72.5 9.5 t64 23.5t53.5 30.5t41 30.5v412q-12 10 -32 20.5t-44.5 19t-52.5 14t-57 5.5q-49 0 -96 -14.5t-83.5 -49t-58.5 -91t-22 -140.5z" />
<glyph unicode="e" horiz-adv-x="1008" d="M96 416q0 95 31 173.5t87.5 134t135.5 86t176 30.5q95 0 166.5 -27.5t120.5 -78.5t73.5 -125t24.5 -167v-82h-628q5 -51 26.5 -94.5t58 -74.5t86 -48.5t109.5 -17.5q35 0 74.5 6.5t81 19t83 30.5t79.5 42v-151q-76 -43 -160.5 -66.5t-192.5 -23.5q-100 0 -180 29.5 t-136 85.5t-86 136.5t-30 182.5zM287 500h434q-5 93 -56 141.5t-141 48.5q-96 0 -156.5 -48.5t-80.5 -141.5z" />
<glyph unicode="f" horiz-adv-x="627" d="M51 690v131h152v180q0 152 74.5 231t203.5 79q23 0 52 -5t49 -12v-157q-9 2 -22 4.5t-26.5 4t-25.5 2.5t-21 1q-40 0 -66 -32t-26 -101v-195h187v-131h-187v-690h-192v690h-152z" />
<glyph unicode="g" horiz-adv-x="1067" d="M96 375q0 105 34 191t96 146.5t151 94t198 33.5q50 0 98 -4.5t92 -11.5t82 -16.5t66 -19.5v-741q0 -128 -22.5 -225.5t-75.5 -163t-140 -98.5t-216 -33q-75 0 -144 10t-125 29v163q76 -23 147 -35t136 -12q74 0 122 26.5t76 72.5t39 108t11 133v64q-56 -40 -120 -66 t-144 -26q-89 0 -156.5 26.5t-113 76t-68.5 120t-23 158.5zM293 381q0 -66 14 -112t40.5 -75t64.5 -42t86 -13q52 0 111 24.5t112 69.5v457q-26 6 -59 9t-68 3q-84 0 -141.5 -27.5t-93 -72.5t-51 -102.5t-15.5 -118.5z" />
<glyph unicode="h" horiz-adv-x="1028" d="M154 0v1294h192v-417q0 -12 -0.5 -29t-1 -35.5t-1 -36t-1.5 -31.5q21 18 49 35t61 30.5t69.5 21.5t74.5 8q153 0 226 -84t73 -240v-516h-193v508q0 87 -35.5 133.5t-107.5 46.5q-35 0 -66.5 -8.5t-58.5 -22.5t-49 -31t-39 -34v-592h-192z" />
<glyph unicode="i" horiz-adv-x="500" d="M133 1055q0 48 34.5 75t84.5 27q24 0 46 -7t38.5 -20.5t26.5 -32t10 -42.5t-10 -43t-26.5 -32.5t-38.5 -20.5t-46 -7q-50 0 -84.5 26.5t-34.5 76.5zM154 0v821h192v-821h-192z" />
<glyph unicode="j" horiz-adv-x="487" d="M74 -473q12 33 26 81t26 110t20 136.5t8 161.5v805h192v-807q0 -92 -10 -167t-26 -135.5t-37 -106.5t-44 -78h-155zM133 1055q0 48 34 75t85 27q49 0 84 -27t35 -75q0 -24 -9.5 -43t-25.5 -32.5t-38 -20.5t-46 -7q-51 0 -85 26.5t-34 76.5z" />
<glyph unicode="k" horiz-adv-x="954" d="M154 0v1294h192v-647q0 -7 -0.5 -23t-1 -35t-1 -39.5t-1.5 -37.5l346 309h236l-412 -364l457 -457h-240l-385 385q0 -9 1 -25.5t1 -27.5v-332h-192z" />
<glyph unicode="l" horiz-adv-x="500" d="M154 0v1294h192v-1294h-192z" />
<glyph unicode="m" horiz-adv-x="1550" d="M154 0v821h186l4 -82q21 18 47 36.5t57 32.5t65.5 23t72.5 9q93 0 155.5 -36t94.5 -99q25 24 56.5 48.5t67.5 43.5t75.5 31t80.5 12q148 0 218.5 -85.5t70.5 -240.5v-514h-193v508q0 87 -33.5 133.5t-99.5 46.5q-34 0 -65.5 -11t-58.5 -27t-48.5 -35t-34.5 -35 q2 -11 3.5 -31.5t1.5 -34.5v-514h-193v508q0 87 -33.5 133.5t-101.5 46.5q-31 0 -61 -9.5t-56.5 -23.5t-48.5 -30.5t-37 -30.5v-594h-192z" />
<glyph unicode="n" horiz-adv-x="1030" d="M154 0v821h186l6 -82q21 20 47 38t57.5 32t68 22.5t77.5 8.5q153 0 226 -82t73 -238v-520h-193v508q0 87 -35.5 133.5t-107.5 46.5q-32 0 -62.5 -8t-57.5 -21.5t-50.5 -30t-42.5 -34.5v-594h-192z" />
<glyph unicode="o" horiz-adv-x="1063" d="M96 403q0 103 31 184t89.5 137.5t142 86t188.5 29.5q101 0 179 -29t131.5 -84t81.5 -134t28 -179q0 -97 -31 -177t-88 -136.5t-138.5 -87.5t-183.5 -31q-98 0 -177.5 30t-135.5 84.5t-86.5 132.5t-30.5 174zM293 410q0 -65 17 -116.5t49 -87t77.5 -54.5t102.5 -19 q115 0 175 72t60 209q0 136 -60 205t-175 69q-116 0 -181 -71t-65 -207z" />
<glyph unicode="p" horiz-adv-x="1083" d="M154 -473v1294h188l4 -73q48 37 112 64.5t148 27.5q81 0 151 -27.5t121 -81t80 -132.5t29 -183q0 -96 -28 -175.5t-81.5 -136.5t-131.5 -88.5t-177 -31.5q-62 0 -121 14t-102 37v-508h-192zM346 182q12 -10 30 -20.5t41.5 -19t52.5 -14t62 -5.5q62 0 110 20t82 58 t51.5 93t17.5 124q0 65 -16 116t-45.5 86.5t-70 54.5t-88.5 19q-39 0 -72.5 -8.5t-62 -22.5t-51.5 -31t-41 -34v-416z" />
<glyph unicode="q" horiz-adv-x="1069" d="M96 395q0 104 28 186.5t81 140t130 88t175 30.5q80 0 139.5 -26.5t100.5 -68.5q6 20 14.5 40.5t17.5 35.5h164q-5 -18 -10.5 -46t-10 -61.5t-7.5 -71.5t-3 -75v-1040h-192v367q0 9 0.5 29t1 43.5t2 46.5t2.5 38q-40 -26 -103 -47.5t-141 -21.5q-93 0 -165 31.5t-122 87 t-76 131t-26 163.5zM293 391q0 -67 18 -116t50 -81.5t76.5 -48.5t97.5 -16q23 0 48.5 4t50.5 11.5t48 17.5t41 22v387q-12 28 -32.5 49.5t-46.5 36t-57 22t-63 7.5q-51 0 -93.5 -18t-73 -54.5t-47.5 -92t-17 -130.5z" />
<glyph unicode="r" horiz-adv-x="670" d="M123 821h162q5 -9 10 -24.5t9.5 -34t8.5 -39.5t6 -41q15 25 32 52.5t39 51t48.5 39t59.5 15.5q34 0 65.5 -7.5t63.5 -19.5v-156q-34 8 -72 11.5t-72 3.5q-38 0 -64.5 -16.5t-42.5 -44t-23 -64t-7 -76.5v-471h-192v545q0 37 -3 78t-7.5 79t-10 69.5t-10.5 49.5z" />
<glyph unicode="s" horiz-adv-x="715" d="M86 53v166q26 -18 57.5 -35t64.5 -29.5t65 -20t59 -7.5q65 0 95 28t30 68q0 21 -6 37.5t-22.5 31t-46 28.5t-75.5 30q-63 23 -105.5 48.5t-68 56t-36.5 66t-11 77.5q0 54 23.5 98.5t64 76.5t95 49.5t116.5 17.5q56 0 110 -11t105 -38v-150q-49 22 -103.5 36.5 t-107.5 14.5q-62 0 -93.5 -26t-31.5 -66q0 -17 6.5 -32t22.5 -29t44 -28.5t71 -29.5q60 -21 103.5 -44.5t72 -52.5t42 -66.5t13.5 -86.5q0 -53 -18.5 -98.5t-56 -79t-94 -52.5t-132.5 -19q-74 0 -140 18.5t-112 52.5z" />
<glyph unicode="t" horiz-adv-x="666" d="M41 690v131h160q17 53 34.5 110.5t32.5 108.5h119v-219h229v-131h-229v-469q0 -43 22 -69.5t64 -26.5q37 0 69 3.5t60 8.5v-119q-34 -18 -82 -27t-100 -9q-121 0 -173 66t-52 202v440h-154z" />
<glyph unicode="u" horiz-adv-x="1030" d="M135 301v520h193v-508q0 -86 35.5 -133t107.5 -47q32 0 62.5 8t57.5 21.5t50.5 30t42.5 34.5v594h193v-821h-187l-6 82q-21 -19 -47 -37t-57.5 -32t-68 -22.5t-77.5 -8.5q-153 0 -226 81.5t-73 237.5z" />
<glyph unicode="v" horiz-adv-x="866" d="M10 821h197l184 -495q11 -28 20 -58t17 -61q5 16 10.5 34t11.5 34.5t11 30t8 22.5q22 58 46.5 121t50 126.5t51 126t49.5 119.5h194l-366 -821h-150z" />
<glyph unicode="w" horiz-adv-x="1346" d="M20 821h197l141 -434q6 -15 12.5 -37t12.5 -46t11.5 -48t8.5 -43h5q3 20 9 44.5t13.5 48.5t14.5 45.5t12 35.5l139 434h147l138 -434q5 -15 11.5 -37t13.5 -46t13.5 -48t10.5 -43h2q5 19 11.5 43.5l13 49t13.5 46t11 35.5l145 434h199l-311 -821h-174l-135 434 q-14 44 -23 78.5t-12 52.5h-6q-4 -18 -13 -52t-24 -81l-140 -432h-168z" />
<glyph unicode="x" horiz-adv-x="887" d="M16 0l318 414q-35 48 -73 100t-76 104.5t-75.5 103.5t-72.5 99h213l160 -239q3 -5 8.5 -14t11.5 -18.5t11 -19t8 -14.5q3 6 8.5 15.5t11.5 19.5t11.5 18.5t8.5 12.5q45 63 84.5 120t85.5 119h205l-305 -401q36 -48 75.5 -101.5t79.5 -108.5t79.5 -108.5t74.5 -101.5h-213 l-182 266q-6 10 -16 25.5t-15 21.5q-5 -6 -14.5 -21.5t-15.5 -25.5l-187 -266h-209z" />
<glyph unicode="y" horiz-adv-x="862" d="M8 821h211l203 -528q5 -11 9 -25.5t7 -25.5q3 11 7.5 23.5t9.5 23.5l198 532h199l-299 -735q-17 -44 -37 -109.5t-41.5 -143t-42.5 -154.5t-39 -152h-196q18 73 35 133.5t36 119.5t40 117t46 130q-85 195 -173.5 397t-172.5 397z" />
<glyph unicode="z" horiz-adv-x="829" d="M51 0v66l434 602h-397v153h674v-59l-434 -608h452v-154h-729z" />
<glyph unicode="{" horiz-adv-x="666" d="M57 432v148q42 1 84 8.5t75.5 24.5t55 44.5t21.5 69.5q0 20 -4 55.5t-10 75.5q-8 45 -14.5 89.5t-6.5 72.5q0 72 25.5 123.5t71.5 84.5t110.5 49t142.5 17v-135q-71 -2 -114 -38t-43 -113q0 -19 5 -54l11 -77q6 -44 12 -89t6 -73q0 -41 -12 -74t-34 -59.5t-51 -46 t-64 -33.5q74 -25 117.5 -75.5t43.5 -131.5q0 -14 -1.5 -33t-4.5 -41t-6 -44.5t-6 -43.5l-11 -77t-5 -54q0 -77 43 -113.5t114 -38.5v-135q-78 1 -142.5 16.5t-110.5 48.5t-71.5 84.5t-25.5 123.5q0 15 1.5 34t4.5 41t7 44.5t8 44.5q6 40 10 75.5t4 55.5q0 41 -21.5 68.5 t-55 45t-75.5 25.5t-84 10z" />
<glyph unicode="|" d="M430 -457v1821h174v-1821h-174z" />
<glyph unicode="}" horiz-adv-x="666" d="M57 -150q72 2 115 38.5t43 113.5q0 19 -5 54l-11 77q-7 43 -13 88.5t-6 73.5q0 41 12.5 74t34 59t51.5 45.5t64 32.5q-72 26 -117 76t-45 133q0 14 1.5 33t4.5 41t6.5 44.5t6.5 43.5l11 77t5 54q0 77 -43 113t-115 38v135q78 -1 143 -17t111 -49t71.5 -84.5t25.5 -123.5 q0 -28 -6.5 -73.5t-14.5 -88.5q-6 -40 -10 -75.5t-4 -55.5q0 -42 21.5 -69.5t55 -44.5t75.5 -24.5t83 -8.5v-148q-41 -2 -83 -10t-75.5 -25.5t-55 -45t-21.5 -68.5q0 -20 4 -55.5t10 -75.5q4 -22 7.5 -44.5t6.5 -44.5t5 -41t2 -34q0 -72 -25.5 -123.5t-71.5 -84.5 t-111 -48.5t-143 -16.5v135z" />
<glyph unicode="~" d="M53 395q2 72 21.5 131t55 100.5t86 64t114.5 22.5q54 0 111.5 -24.5t113.5 -59.5q51 -35 88.5 -53.5t63.5 -18.5q43 0 70 39t30 117h176q-3 -73 -22.5 -132t-54.5 -100t-85 -63.5t-114 -22.5q-65 0 -124.5 26t-133.5 77q-39 28 -67.5 40.5t-51.5 12.5q-45 0 -72.5 -40 t-30.5 -116h-174z" />
<glyph unicode="&#xa1;" horiz-adv-x="565" d="M156 721q0 24 10 45.5t27.5 38t40.5 26t49 9.5q27 0 50 -9.5t40 -26t27 -38t10 -45.5q0 -25 -10 -47t-27 -38.5t-40 -26t-50 -9.5q-26 0 -49 9.5t-40.5 26t-27.5 38.5t-10 47zM176 -473l41 940h137l39 -940h-217z" />
<glyph unicode="&#xa2;" d="M150 692q0 93 26.5 166.5t74 127.5t112 87.5t139.5 46.5v174h141v-168q59 -5 117 -21t106 -48v-180q-62 45 -119 67.5t-104 30.5v-549q54 9 111 33t112 61v-166q-48 -31 -102.5 -51.5t-120.5 -28.5v-184h-141v182q-75 9 -139.5 42t-112 87t-74 127.5t-26.5 163.5z M346 688q0 -102 43.5 -166.5t112.5 -87.5v522q-32 -13 -60.5 -35.5t-49.5 -55.5t-33.5 -77t-12.5 -100z" />
<glyph unicode="&#xa3;" d="M80 0v139q54 29 90.5 68t58.5 87.5t31.5 105t9.5 118.5v37h-172v143h172v176q0 108 33.5 190t90.5 137t132 82.5t158 27.5q65 0 130.5 -16.5t119.5 -53.5v-174q-28 21 -60 38.5t-63.5 30t-62.5 19t-58 6.5q-47 0 -88.5 -17t-72 -52t-48.5 -90t-18 -130v-174h325v-143 h-325v-14q0 -65 -7 -122.5t-24 -106.5t-45.5 -88.5t-71.5 -69.5h695v-154h-930z" />
<glyph unicode="&#xa4;" horiz-adv-x="1065" d="M102 852l117 121l80 -82q48 32 101.5 45.5t115.5 13.5q63 0 117 -14.5t102 -46.5l82 84l117 -121l-80 -82q32 -48 50 -101.5t18 -115.5q0 -124 -64 -221l76 -76l-117 -119l-80 82q-98 -65 -221 -65q-62 0 -116.5 16t-102.5 47l-80 -78l-113 115l72 78q-31 48 -48 105 t-17 116q0 62 18 117t49 104zM289 553q0 -49 18 -92.5t48.5 -75.5t72 -51t88.5 -19t88.5 19t72 51t48.5 75.5t18 92.5t-18 92t-48.5 74.5t-72 50t-88.5 18.5t-88.5 -18.5t-72 -50t-48.5 -74.5t-18 -92z" />
<glyph unicode="&#xa5;" d="M-2 1294h219l250 -483q5 -10 12.5 -24t15 -29t14.5 -30.5t11 -27.5q5 13 11 28t13 30t13.5 28.5t11.5 22.5l262 485h207l-360 -639h264v-141h-326v-133h326v-141h-326v-240h-196v240h-328l-2 141h330v133h-328l-2 141h264z" />
<glyph unicode="&#xa6;" d="M430 266h174v-723h-174v723zM430 641v723h174v-723h-174z" />
<glyph unicode="&#xa7;" horiz-adv-x="956" d="M98 524q0 42 13 78.5t35.5 66t52 52.5t61.5 39q-60 38 -95.5 100t-35.5 144q0 71 28 125t77.5 90.5t117 55.5t146.5 19q85 0 153 -16t131 -45v-184q-26 15 -61 29t-73.5 24.5t-77 17t-70.5 6.5q-90 0 -134 -36.5t-44 -90.5q0 -35 17.5 -61t49 -46.5t75 -36t95.5 -30.5 q66 -18 125 -42.5t104 -59t71 -80.5t26 -108q0 -45 -15 -85t-39.5 -73t-56.5 -58.5t-67 -42.5q61 -43 90.5 -99.5t29.5 -125.5q0 -67 -25 -123t-73.5 -97t-119 -64t-160.5 -23q-88 0 -172 15t-152 44v189q27 -14 67.5 -28.5t85.5 -26.5t89.5 -19.5t78.5 -7.5q55 0 91.5 11 t58 29.5t30.5 41.5t9 47q0 29 -13.5 52.5t-41 44t-70 38t-100.5 35.5q-75 23 -133.5 50.5t-98 64.5t-60 86t-20.5 114zM287 535q0 -36 13 -61t40.5 -44.5t70 -36t101.5 -33.5q9 -3 15.5 -4.5t13.5 -3.5q84 23 116.5 62t32.5 88q0 35 -14 59.5t-43 44t-73.5 36.5t-106.5 36 q-14 5 -28 9t-22 7q-25 -14 -46.5 -29.5t-37 -35t-24 -42.5t-8.5 -52z" />
<glyph unicode="&#xa8;" horiz-adv-x="791" d="M102 1055q0 46 29.5 75t85.5 29q59 0 91 -29t32 -75q0 -42 -31 -72.5t-90 -30.5q-56 0 -86.5 30.5t-30.5 72.5zM451 1055q0 46 29.5 75t84.5 29q60 0 92.5 -29t32.5 -75q0 -42 -31 -72.5t-90 -30.5q-57 0 -87.5 30.5t-30.5 72.5z" />
<glyph unicode="&#xa9;" horiz-adv-x="1536" d="M104 647q0 92 23.5 176.5t67 158.5t104 134.5t134.5 104t158.5 67t176.5 23.5t177 -23.5t159 -67t134.5 -104t103.5 -134.5t66.5 -158.5t23.5 -176.5q0 -91 -23.5 -176t-66.5 -158.5t-103.5 -134t-134.5 -104t-159 -67t-177 -23.5t-176.5 23.5t-158.5 67t-134.5 104 t-104 134t-67 158.5t-23.5 176zM213 647q0 -115 43.5 -216.5t119 -177t176.5 -119.5t216 -44q116 0 217.5 44t177 119.5t119 177t43.5 216.5t-43.5 216.5t-119 177t-177 119.5t-217.5 44q-115 0 -216 -44t-176.5 -119.5t-119 -177t-43.5 -216.5zM422 637q0 89 29 163.5 t80 128.5t121 84.5t153 30.5q56 0 109.5 -11.5t91.5 -26.5v-111q-36 19 -85.5 35t-105.5 16q-59 0 -109 -22t-86 -62t-56.5 -97t-20.5 -128q0 -64 19.5 -117.5t55 -91.5t85 -59t108.5 -21q56 0 104 13.5t89 39.5v-106q-88 -47 -216 -47q-81 0 -148.5 29t-116 80.5t-75 123 t-26.5 156.5z" />
<glyph unicode="&#xaa;" horiz-adv-x="836" d="M76 818q0 109 83 168t246 59q25 0 48.5 -1t52.5 -4q0 75 -30.5 110.5t-101.5 35.5q-51 0 -103 -12.5t-103 -33.5v126q45 21 101.5 33t110.5 12q69 0 123 -13.5t91 -44.5t56.5 -82t19.5 -126v-254q0 -29 11.5 -42t27.5 -13q17 0 30.5 1t31.5 5v-98q-20 -15 -50 -22.5 t-65 -7.5q-60 0 -91 23.5t-45 61.5q-39 -36 -91.5 -60.5t-126.5 -24.5q-57 0 -99 15.5t-70.5 43t-42.5 65t-14 80.5zM244 824q0 -42 20.5 -65t65.5 -23t92.5 18t83.5 51v128q-18 2 -41 3t-48 1q-54 0 -88 -9.5t-53 -25t-25.5 -36t-6.5 -42.5z" />
<glyph unicode="&#xab;" horiz-adv-x="995" d="M76 403v31q38 41 77 86t76 91.5t70.5 92.5t60.5 89h175v-43q-50 -69 -117.5 -156t-143.5 -174q38 -43 74.5 -87.5t70 -87t63 -82t53.5 -73.5v-45h-177q-27 45 -61 91.5t-71 93t-75.5 90.5t-74.5 83zM461 403v31q38 41 76.5 86t75.5 91.5t71 92.5t61 89h175v-43 q-51 -69 -119 -156t-144 -174q76 -87 144.5 -174.5t118.5 -155.5v-45h-177q-28 45 -62 91.5t-71 93t-75 90.5t-74 83z" />
<glyph unicode="&#xac;" d="M80 475v160h874v-510h-159v350h-715z" />
<glyph unicode="&#xad;" horiz-adv-x="735" d="M131 352v170h473v-170h-473z" />
<glyph unicode="&#xae;" horiz-adv-x="1536" d="M104 647q0 92 23.5 176.5t67 158.5t104 134.5t134.5 104t158.5 67t176.5 23.5t177 -23.5t159 -67t134.5 -104t103.5 -134.5t66.5 -158.5t23.5 -176.5q0 -91 -23.5 -176t-66.5 -158.5t-103.5 -134t-134.5 -104t-159 -67t-177 -23.5t-176.5 23.5t-158.5 67t-134.5 104 t-104 134t-67 158.5t-23.5 176zM213 647q0 -115 43.5 -216.5t119 -177t176.5 -119.5t216 -44q116 0 217.5 44t177 119.5t119 177t43.5 216.5t-43.5 216.5t-119 177t-177 119.5t-217.5 44q-115 0 -216 -44t-176.5 -119.5t-119 -177t-43.5 -216.5zM539 260v774h190 q63 0 119 -10t98.5 -34t67 -64t24.5 -101q0 -46 -15.5 -82.5t-41 -63.5t-59 -44.5t-68.5 -24.5v-4l236 -346h-136l-219 332h-82v-332h-114zM653 690h76q90 0 138 29.5t48 97.5q0 62 -43.5 89.5t-136.5 27.5h-82v-244z" />
<glyph unicode="&#xaf;" horiz-adv-x="807" d="M4 1429v137h799v-137h-799z" />
<glyph unicode="&#xb0;" horiz-adv-x="639" d="M39 1022q0 56 22 105.5t60 86.5t89 58.5t109 21.5q59 0 110 -21.5t89 -58.5t60 -86.5t22 -105.5q0 -57 -22 -106.5t-60 -86.5t-89 -58t-110 -21q-58 0 -109 21t-89 58t-60 86.5t-22 106.5zM188 1022q0 -29 11 -54t29 -43.5t41.5 -29t49.5 -10.5t49.5 10.5t41.5 29 t28.5 43.5t10.5 54t-10.5 54t-28.5 43.5t-41.5 29t-49.5 10.5t-49.5 -10.5t-41.5 -29t-29 -43.5t-11 -54z" />
<glyph unicode="&#xb1;" d="M80 0v160h874v-160h-874zM80 598v160h358v348h160v-348h356v-160h-356v-350h-160v350h-358z" />
<glyph unicode="&#xb2;" horiz-adv-x="688" d="M96 1063v151q38 36 101.5 60t140.5 24q62 0 108.5 -16t77 -44.5t45.5 -66t15 -81.5q0 -51 -16 -91.5t-42 -80.5q-38 -60 -237 -283h321v-135h-510v118q78 88 127 145t78.5 93t43.5 54.5t20 29.5q12 20 26.5 53t14.5 70q0 48 -27.5 74t-75.5 26q-25 0 -54 -9t-57.5 -23.5 t-54.5 -32t-45 -35.5z" />
<glyph unicode="&#xb3;" horiz-adv-x="688" d="M94 547v147q23 -15 49.5 -27t54 -21t54 -14t49.5 -5q66 0 96.5 28.5t30.5 77.5q0 50 -43 77.5t-119 27.5h-71v133h41q80 0 121.5 30t41.5 78q0 38 -27.5 62t-78.5 24q-20 0 -44.5 -4.5t-50 -13t-50.5 -20.5t-46 -27v145q21 15 47 25t54.5 16t57.5 9t56 3q58 0 104.5 -14 t79.5 -40.5t50.5 -64t17.5 -85.5q0 -63 -37 -109.5t-96 -69.5q35 -8 64.5 -24t51 -38.5t34 -52.5t12.5 -67q0 -54 -20.5 -97.5t-58 -74.5t-90.5 -48t-118 -17q-59 0 -114.5 12.5t-102.5 38.5z" />
<glyph unicode="&#xb4;" horiz-adv-x="451" d="M37 918v22q19 26 41 63.5t43.5 79t41 82t34.5 72.5h217v-14q-10 -17 -28.5 -41.5t-41.5 -53t-49.5 -58.5t-53.5 -58t-52.5 -52.5t-47.5 -41.5h-104z" />
<glyph unicode="&#xb5;" horiz-adv-x="1049" d="M154 -463v1284h192v-524q0 -45 11 -76t30.5 -50.5t46.5 -28.5t58 -9q35 0 67 10.5t59.5 26.5t49 34.5t34.5 33.5v583h193v-821h-184l-4 88q-19 -19 -45 -37.5t-57 -33.5t-65.5 -24t-72.5 -9q-31 0 -63 6t-58 20v-473h-192z" />
<glyph unicode="&#xb6;" horiz-adv-x="1014" d="M66 961q0 77 23.5 139t68 105t109.5 66t149 23h518v-123h-113v-1382h-147v1382h-142v-1382h-149v844q-70 4 -128 26.5t-100 63.5t-65.5 100.5t-23.5 137.5z" />
<glyph unicode="&#xb7;" horiz-adv-x="451" d="M90 555q0 27 10.5 50t29 39.5t43 26t52.5 9.5q29 0 53.5 -9.5t42.5 -26t28.5 -39.5t10.5 -50q0 -25 -10.5 -48.5t-28.5 -40.5t-42.5 -27.5t-53.5 -10.5q-28 0 -52.5 10.5t-43 27.5t-29 40.5t-10.5 48.5z" />
<glyph unicode="&#xb8;" horiz-adv-x="420" d="M47 -258q19 -5 47.5 -8.5t46.5 -3.5q42 0 66 13t24 42q0 31 -38 52.5t-107 27.5l88 170h145l-49 -101q26 -8 48 -20t39 -29.5t26.5 -42t9.5 -55.5q0 -85 -56.5 -132.5t-182.5 -47.5q-26 0 -57 3.5t-50 8.5v123z" />
<glyph unicode="&#xb9;" horiz-adv-x="688" d="M119 952v160l239 182h119v-794h-166v602q-8 -8 -25.5 -22t-31.5 -25z" />
<glyph unicode="&#xba;" horiz-adv-x="836" d="M74 956q0 83 24.5 148.5t70.5 111.5t111.5 70.5t147.5 24.5q77 0 138.5 -23.5t104.5 -67.5t66 -107.5t23 -143.5q0 -78 -23.5 -144t-67.5 -113t-108.5 -73.5t-146.5 -26.5q-79 0 -142 24t-107 69t-67.5 108.5t-23.5 142.5zM242 961q0 -103 45.5 -159.5t130.5 -56.5 q41 0 74 15.5t55.5 44t34.5 69t12 89.5q0 103 -44.5 161t-129.5 58t-131.5 -59.5t-46.5 -161.5z" />
<glyph unicode="&#xbb;" horiz-adv-x="995" d="M76 45v45q25 35 55 74.5t63 82.5t69 87t73 86q-37 42 -73.5 86t-70 87t-63 83t-53.5 74v43h176q29 -45 63 -91.5t70.5 -93t75 -91t74.5 -83.5v-31q-38 -40 -77 -85t-76 -91.5t-70.5 -92.5t-61.5 -89h-174zM461 45v45q24 35 53.5 74.5t62 82.5t68.5 87t74 86 q-38 42 -74.5 86t-69.5 87t-62 83t-52 74v43h176q28 -45 62 -91.5t71 -93t75.5 -91t74.5 -83.5v-31q-38 -40 -77 -85t-76.5 -91.5t-71 -92.5t-60.5 -89h-174z" />
<glyph unicode="&#xbc;" horiz-adv-x="1524" d="M108 952v160l239 182h119v-794h-166v602q-8 -8 -25.5 -22t-31.5 -25zM241 -18l848 1329h176l-847 -1329h-177zM805 242q7 38 29 87t53.5 103t69 109t75.5 103.5t73.5 87t61.5 59.5h168v-485h113v-133h-113v-172h-166v172h-348zM973 306h196v182q0 12 0.5 29.5t0.5 36 t0.5 35t0.5 24.5q-16 -17 -42.5 -50t-55 -75t-55.5 -89.5t-45 -92.5z" />
<glyph unicode="&#xbd;" horiz-adv-x="1524" d="M108 952v160l239 182h119v-794h-166v602q-8 -8 -25.5 -22t-31.5 -25zM241 -18l848 1329h176l-847 -1329h-177zM917 564v151q38 36 101.5 60t140.5 24q62 0 108.5 -16t77 -44.5t45.5 -66t15 -81.5q0 -51 -16 -91.5t-42 -80.5q-38 -60 -237 -283h321v-135h-510v118 q78 88 127 145t78.5 93t43.5 54.5t20 29.5q12 20 26.5 53t14.5 70q0 48 -27.5 74t-75.5 26q-25 0 -54 -9t-57.5 -23.5t-54.5 -32t-45 -35.5z" />
<glyph unicode="&#xbe;" horiz-adv-x="1524" d="M114 547v147q23 -15 49.5 -27t54 -21t54 -14t49.5 -5q66 0 96.5 28.5t30.5 77.5q0 50 -43 77.5t-119 27.5h-71v133h41q80 0 121.5 30t41.5 78q0 38 -27.5 62t-78.5 24q-20 0 -44.5 -4.5t-50 -13t-50.5 -20.5t-46 -27v145q21 15 47 25t54.5 16t57.5 9t56 3q58 0 104.5 -14 t79.5 -40.5t50.5 -64t17.5 -85.5q0 -63 -37 -109.5t-96 -69.5q35 -8 64.5 -24t51 -38.5t34 -52.5t12.5 -67q0 -54 -20.5 -97.5t-58 -74.5t-90.5 -48t-118 -17q-59 0 -114.5 12.5t-102.5 38.5zM274 -18l848 1329h176l-847 -1329h-177zM838 242q7 38 29 87t53.5 103t69 109 t75.5 103.5t73.5 87t61.5 59.5h168v-485h113v-133h-113v-172h-166v172h-348zM1006 306h196v182q0 12 0.5 29.5t0.5 36t0.5 35t0.5 24.5q-16 -17 -42.5 -50t-55 -75t-55.5 -89.5t-45 -92.5z" />
<glyph unicode="&#xbf;" horiz-adv-x="825" d="M74 -158q0 49 13 94t39.5 89t68 89t98.5 93q38 34 61 62.5t36.5 55t20.5 53t11 56.5l8 60h127l12 -56q3 -14 4.5 -34.5t1.5 -34.5q0 -70 -36 -128.5t-107 -115.5q-45 -38 -77 -71t-52.5 -65.5t-29.5 -67.5t-9 -77q0 -81 50.5 -125.5t138.5 -44.5q66 0 145.5 22.5 t157.5 67.5v-174q-76 -37 -153.5 -54t-158.5 -17q-84 0 -152.5 22.5t-117 64.5t-74.5 102t-26 134zM350 713q0 26 10.5 49t28.5 40.5t42.5 27.5t51.5 10q29 0 53.5 -10t42.5 -27.5t28.5 -40.5t10.5 -49q0 -27 -10.5 -50t-28.5 -39.5t-42.5 -26t-53.5 -9.5q-27 0 -51.5 9.5 t-42.5 26t-28.5 39.5t-10.5 50z" />
<glyph unicode="&#xc0;" horiz-adv-x="1212" d="M6 0l502 1294h190l508 -1294h-211l-145 371h-498l-135 -371h-211zM332 1632v15h215q15 -27 34.5 -61t41 -67.5t44 -64t42.5 -51.5v-23h-101q-34 21 -75.5 55.5t-81.5 71t-72 70.5t-47 55zM414 543h377l-164 440q-5 14 -12.5 40.5t-12.5 55.5h-4q-5 -31 -12.5 -57.5 t-14.5 -44.5z" />
<glyph unicode="&#xc1;" horiz-adv-x="1212" d="M6 0l502 1294h190l508 -1294h-211l-145 371h-498l-135 -371h-211zM414 543h377l-164 440q-5 14 -12.5 40.5t-12.5 55.5h-4q-5 -31 -12.5 -57.5t-14.5 -44.5zM516 1380v23q20 21 42.5 51.5t44 64t41 67.5t34.5 61h215v-15q-10 -14 -28 -34t-41 -43.5t-50 -48.5t-54.5 -48 t-54 -43.5t-49.5 -34.5h-100z" />
<glyph unicode="&#xc2;" horiz-adv-x="1212" d="M6 0l502 1294h190l508 -1294h-211l-145 371h-498l-135 -371h-211zM291 1380v21q22 21 49 51.5t54.5 64.5t53 68t44.5 62h219q18 -28 43 -62t52.5 -68t54.5 -64.5t48 -51.5v-21h-100q-21 12 -49 29.5t-57 36.5t-56 38t-47 34q-21 -15 -48 -34.5t-56 -38.5t-56.5 -36 t-48.5 -29h-100zM414 543h377l-164 440q-5 14 -12.5 40.5t-12.5 55.5h-4q-5 -31 -12.5 -57.5t-14.5 -44.5z" />
<glyph unicode="&#xc3;" horiz-adv-x="1212" d="M6 0l502 1294h190l508 -1294h-211l-145 371h-498l-135 -371h-211zM284 1368q11 111 61 177.5t136 66.5q43 0 78 -16t69 -35q26 -14 50.5 -26.5t40.5 -12.5q24 0 43.5 21t31.5 69h117q-4 -54 -19 -98.5t-39.5 -76t-58.5 -49t-75 -17.5q-39 0 -78 17t-70 34 q-25 14 -50 26.5t-40 12.5q-23 0 -41 -21.5t-31 -71.5h-125zM414 543h377l-164 440q-5 14 -12.5 40.5t-12.5 55.5h-4q-5 -31 -12.5 -57.5t-14.5 -44.5z" />
<glyph unicode="&#xc4;" horiz-adv-x="1212" d="M6 0l502 1294h190l508 -1294h-211l-145 371h-498l-135 -371h-211zM307 1497q0 46 29.5 75t85.5 29q59 0 91 -29t32 -75q0 -42 -31 -72.5t-90 -30.5q-56 0 -86.5 30.5t-30.5 72.5zM414 543h377l-164 440q-5 14 -12.5 40.5t-12.5 55.5h-4q-5 -31 -12.5 -57.5t-14.5 -44.5z M656 1497q0 46 29.5 75t84.5 29q60 0 92.5 -29t32.5 -75q0 -42 -31 -72.5t-90 -30.5q-57 0 -87.5 30.5t-30.5 72.5z" />
<glyph unicode="&#xc5;" horiz-adv-x="1212" d="M6 0l502 1294h190l508 -1294h-211l-145 371h-498l-135 -371h-211zM377 1388q0 48 16 85.5t45.5 63.5t70 40t89.5 14t90.5 -14t71.5 -40t47 -63t17 -84q0 -49 -16.5 -88t-46.5 -66t-71.5 -41t-91.5 -14q-49 0 -89.5 14t-70 41t-45.5 65.5t-16 86.5zM414 543h377l-164 440 q-5 14 -12.5 40.5t-12.5 55.5h-4q-5 -31 -12.5 -57.5t-14.5 -44.5zM512 1388q0 -45 22 -69.5t64 -24.5q38 0 62 24.5t24 69.5q0 44 -24 68t-62 24q-35 0 -60.5 -24t-25.5 -68z" />
<glyph unicode="&#xc6;" horiz-adv-x="1571" d="M6 0l619 1294h815v-168h-451v-393h453v-166h-453v-401h453v-166h-649v371h-404q-43 -91 -87.5 -185.5t-86.5 -185.5h-209zM467 543h326v583h-54z" />
<glyph unicode="&#xc7;" horiz-adv-x="1214" d="M113 633q0 148 49 272.5t135.5 214.5t205 140.5t257.5 50.5q47 0 95 -5.5t94 -15t87.5 -22t75.5 -27.5v-176q-35 15 -78 30t-89 26.5t-94 18.5t-93 7q-94 0 -174.5 -36.5t-139.5 -103.5t-93 -162t-34 -212q0 -109 31.5 -198.5t89 -153.5t138 -99t178.5 -35q91 0 180.5 24 t171.5 69v-177q-75 -40 -168 -60.5t-203 -20.5q-137 0 -251.5 48t-197 134t-128 205.5t-45.5 263.5zM508 -258q19 -5 47.5 -8.5t46.5 -3.5q42 0 66 13t24 42q0 31 -38 52.5t-107 27.5l88 170h145l-49 -101q26 -8 48 -20t39 -29.5t26.5 -42t9.5 -55.5q0 -85 -56.5 -132.5 t-182.5 -47.5q-26 0 -57 3.5t-50 8.5v123z" />
<glyph unicode="&#xc8;" horiz-adv-x="954" d="M178 0v1294h645v-168h-450v-393h452v-166h-452v-401h452v-166h-647zM270 1632v15h215q15 -27 34.5 -61t41 -67.5t44 -64t42.5 -51.5v-23h-101q-34 21 -75.5 55.5t-81.5 71t-72 70.5t-47 55z" />
<glyph unicode="&#xc9;" horiz-adv-x="954" d="M178 0v1294h645v-168h-450v-393h452v-166h-452v-401h452v-166h-647zM387 1380v23q20 21 42.5 51.5t44 64t41 67.5t34.5 61h215v-15q-10 -14 -28 -34t-41 -43.5t-50 -48.5t-54.5 -48t-54 -43.5t-49.5 -34.5h-100z" />
<glyph unicode="&#xca;" horiz-adv-x="954" d="M178 0v1294h645v-168h-450v-393h452v-166h-452v-401h452v-166h-647zM195 1380v21q22 21 49 51.5t54.5 64.5t53 68t44.5 62h219q18 -28 43 -62t52.5 -68t54.5 -64.5t48 -51.5v-21h-100q-21 12 -49 29.5t-57 36.5t-56 38t-47 34q-21 -15 -48 -34.5t-56 -38.5t-56.5 -36 t-48.5 -29h-100z" />
<glyph unicode="&#xcb;" horiz-adv-x="954" d="M178 0v1294h645v-168h-450v-393h452v-166h-452v-401h452v-166h-647zM221 1497q0 46 29.5 75t85.5 29q59 0 91 -29t32 -75q0 -42 -31 -72.5t-90 -30.5q-56 0 -86.5 30.5t-30.5 72.5zM570 1497q0 46 29.5 75t84.5 29q60 0 92.5 -29t32.5 -75q0 -42 -31 -72.5t-90 -30.5 q-57 0 -87.5 30.5t-30.5 72.5z" />
<glyph unicode="&#xcc;" horiz-adv-x="553" d="M3 1632v15h215q15 -27 34.5 -61t41 -67.5t44 -64t42.5 -51.5v-23h-101q-34 21 -75.5 55.5t-81.5 71t-72 70.5t-47 55zM178 0v1294h197v-1294h-197z" />
<glyph unicode="&#xcd;" horiz-adv-x="553" d="M178 0v1294h197v-1294h-197zM178 1380v23q20 21 42.5 51.5t44 64t41 67.5t34.5 61h215v-15q-10 -14 -28 -34t-41 -43.5t-50 -48.5t-54.5 -48t-54 -43.5t-49.5 -34.5h-100z" />
<glyph unicode="&#xce;" horiz-adv-x="553" d="M-32 1380v21q22 21 49 51.5t54.5 64.5t53 68t44.5 62h219q18 -28 43 -62t52.5 -68t54.5 -64.5t48 -51.5v-21h-100q-21 12 -49 29.5t-57 36.5t-56 38t-47 34q-21 -15 -48 -34.5t-56 -38.5t-56.5 -36t-48.5 -29h-100zM178 0v1294h197v-1294h-197z" />
<glyph unicode="&#xcf;" horiz-adv-x="553" d="M-18 1497q0 46 29.5 75t85.5 29q59 0 91 -29t32 -75q0 -42 -31 -72.5t-90 -30.5q-56 0 -86.5 30.5t-30.5 72.5zM178 0v1294h197v-1294h-197zM331 1497q0 46 29.5 75t84.5 29q60 0 92.5 -29t32.5 -75q0 -42 -31 -72.5t-90 -30.5q-57 0 -87.5 30.5t-30.5 72.5z" />
<glyph unicode="&#xd0;" horiz-adv-x="1384" d="M20 573v162h158v559h354q176 0 313.5 -39.5t232.5 -118t144.5 -195t49.5 -269.5q0 -151 -55.5 -275t-155.5 -212.5t-239 -136.5t-306 -48h-338v573h-158zM375 166h135q128 0 231.5 35.5t176.5 101t112 159t39 208.5q0 119 -37.5 205t-107 142t-170 82.5t-226.5 26.5h-153 v-391h336v-162h-336v-407z" />
<glyph unicode="&#xd1;" horiz-adv-x="1483" d="M178 0v1294h207l604 -811q15 -21 35 -50.5t39 -60t35.5 -58t25.5 -44.5v1024h181v-1294h-193l-633 840q-7 8 -23.5 32.5t-35 53.5t-35.5 57t-25 43v-1026h-182zM469 1347q11 111 61 177.5t136 66.5q43 0 78 -16t69 -35q26 -14 50.5 -26.5t40.5 -12.5q24 0 43.5 21 t31.5 69h117q-4 -54 -19 -98.5t-39.5 -76t-58.5 -49t-75 -17.5q-39 0 -78 17t-70 34q-25 14 -50 26.5t-40 12.5q-23 0 -41 -21.5t-31 -71.5h-125z" />
<glyph unicode="&#xd2;" horiz-adv-x="1448" d="M113 633q0 154 42.5 279.5t123.5 214t197.5 136.5t264.5 48q135 0 245 -47t187.5 -132.5t119.5 -204.5t42 -263q0 -157 -42.5 -283.5t-122 -215t-193.5 -136t-258 -47.5q-138 0 -250 46.5t-191 132t-122 205.5t-43 267zM317 645q0 -112 28 -204t80.5 -157t127 -101 t166.5 -36q98 0 175 33.5t130 97t81 156t28 209.5q0 118 -26 211.5t-77 158.5t-126 99.5t-173 34.5q-94 0 -170.5 -36.5t-130.5 -102.5t-83.5 -158.5t-29.5 -204.5zM486 1632v15h215q15 -27 34.5 -61t41 -67.5t44 -64t42.5 -51.5v-23h-101q-34 21 -75.5 55.5t-81.5 71 t-72 70.5t-47 55z" />
<glyph unicode="&#xd3;" horiz-adv-x="1448" d="M113 633q0 154 42.5 279.5t123.5 214t197.5 136.5t264.5 48q135 0 245 -47t187.5 -132.5t119.5 -204.5t42 -263q0 -157 -42.5 -283.5t-122 -215t-193.5 -136t-258 -47.5q-138 0 -250 46.5t-191 132t-122 205.5t-43 267zM317 645q0 -112 28 -204t80.5 -157t127 -101 t166.5 -36q98 0 175 33.5t130 97t81 156t28 209.5q0 118 -26 211.5t-77 158.5t-126 99.5t-173 34.5q-94 0 -170.5 -36.5t-130.5 -102.5t-83.5 -158.5t-29.5 -204.5zM621 1380v23q20 21 42.5 51.5t44 64t41 67.5t34.5 61h215v-15q-10 -14 -28 -34t-41 -43.5t-50 -48.5 t-54.5 -48t-54 -43.5t-49.5 -34.5h-100z" />
<glyph unicode="&#xd4;" horiz-adv-x="1448" d="M113 633q0 154 42.5 279.5t123.5 214t197.5 136.5t264.5 48q135 0 245 -47t187.5 -132.5t119.5 -204.5t42 -263q0 -157 -42.5 -283.5t-122 -215t-193.5 -136t-258 -47.5q-138 0 -250 46.5t-191 132t-122 205.5t-43 267zM317 645q0 -112 28 -204t80.5 -157t127 -101 t166.5 -36q98 0 175 33.5t130 97t81 156t28 209.5q0 118 -26 211.5t-77 158.5t-126 99.5t-173 34.5q-94 0 -170.5 -36.5t-130.5 -102.5t-83.5 -158.5t-29.5 -204.5zM426 1380v21q22 21 49 51.5t54.5 64.5t53 68t44.5 62h219q18 -28 43 -62t52.5 -68t54.5 -64.5t48 -51.5v-21 h-100q-21 12 -49 29.5t-57 36.5t-56 38t-47 34q-21 -15 -48 -34.5t-56 -38.5t-56.5 -36t-48.5 -29h-100z" />
<glyph unicode="&#xd5;" horiz-adv-x="1448" d="M113 633q0 154 42.5 279.5t123.5 214t197.5 136.5t264.5 48q135 0 245 -47t187.5 -132.5t119.5 -204.5t42 -263q0 -157 -42.5 -283.5t-122 -215t-193.5 -136t-258 -47.5q-138 0 -250 46.5t-191 132t-122 205.5t-43 267zM317 645q0 -112 28 -204t80.5 -157t127 -101 t166.5 -36q98 0 175 33.5t130 97t81 156t28 209.5q0 118 -26 211.5t-77 158.5t-126 99.5t-173 34.5q-94 0 -170.5 -36.5t-130.5 -102.5t-83.5 -158.5t-29.5 -204.5zM422 1368q11 111 61 177.5t136 66.5q43 0 78 -16t69 -35q26 -14 50.5 -26.5t40.5 -12.5q24 0 43.5 21 t31.5 69h117q-4 -54 -19 -98.5t-39.5 -76t-58.5 -49t-75 -17.5q-39 0 -78 17t-70 34q-25 14 -50 26.5t-40 12.5q-23 0 -41 -21.5t-31 -71.5h-125z" />
<glyph unicode="&#xd6;" horiz-adv-x="1448" d="M113 633q0 154 42.5 279.5t123.5 214t197.5 136.5t264.5 48q135 0 245 -47t187.5 -132.5t119.5 -204.5t42 -263q0 -157 -42.5 -283.5t-122 -215t-193.5 -136t-258 -47.5q-138 0 -250 46.5t-191 132t-122 205.5t-43 267zM317 645q0 -112 28 -204t80.5 -157t127 -101 t166.5 -36q98 0 175 33.5t130 97t81 156t28 209.5q0 118 -26 211.5t-77 158.5t-126 99.5t-173 34.5q-94 0 -170.5 -36.5t-130.5 -102.5t-83.5 -158.5t-29.5 -204.5zM440 1497q0 46 29.5 75t85.5 29q59 0 91 -29t32 -75q0 -42 -31 -72.5t-90 -30.5q-56 0 -86.5 30.5 t-30.5 72.5zM789 1497q0 46 29.5 75t84.5 29q60 0 92.5 -29t32.5 -75q0 -42 -31 -72.5t-90 -30.5q-57 0 -87.5 30.5t-30.5 72.5z" />
<glyph unicode="&#xd7;" d="M102 256l295 299l-295 297l117 121l299 -299l299 299l117 -121l-295 -297l295 -299l-117 -119l-299 297l-299 -297z" />
<glyph unicode="&#xd8;" horiz-adv-x="1450" d="M98 -53l170 223q-72 87 -113.5 205.5t-41.5 257.5q0 154 42.5 279.5t123.5 214t197.5 136.5t264.5 48q91 0 172.5 -22t147.5 -64l92 123h199l-170 -228q72 -85 112.5 -202t40.5 -254q0 -157 -42.5 -283.5t-122 -215t-193.5 -136t-258 -47.5q-97 0 -180.5 22t-149.5 64 l-94 -121h-197zM317 645q0 -94 17.5 -172.5t54.5 -138.5q72 95 143 188.5t141 187l140 187t141 188.5q-46 31 -100.5 46.5t-122.5 15.5q-94 0 -170.5 -36.5t-130.5 -102.5t-83.5 -158.5t-29.5 -204.5zM498 215q48 -34 102 -51t119 -17q98 0 175 33.5t130 97t81 156t28 209.5 q0 99 -16.5 179.5t-53.5 140.5q-72 -95 -143 -188t-141 -186l-140 -186t-141 -188z" />
<glyph unicode="&#xd9;" horiz-adv-x="1393" d="M168 506v788h197v-780q0 -92 24 -161.5t68.5 -116t107 -70t140.5 -23.5q73 0 133 22.5t102.5 67t66 112t23.5 157.5v792h195v-768q0 -137 -37 -240t-107 -171.5t-170 -103t-225 -34.5q-119 0 -214.5 33.5t-163 100t-104 165.5t-36.5 230zM486 1632v15h215 q15 -27 34.5 -61t41 -67.5t44 -64t42.5 -51.5v-23h-101q-34 21 -75.5 55.5t-81.5 71t-72 70.5t-47 55z" />
<glyph unicode="&#xda;" horiz-adv-x="1393" d="M168 506v788h197v-780q0 -92 24 -161.5t68.5 -116t107 -70t140.5 -23.5q73 0 133 22.5t102.5 67t66 112t23.5 157.5v792h195v-768q0 -137 -37 -240t-107 -171.5t-170 -103t-225 -34.5q-119 0 -214.5 33.5t-163 100t-104 165.5t-36.5 230zM586 1380v23q20 21 42.5 51.5 t44 64t41 67.5t34.5 61h215v-15q-10 -14 -28 -34t-41 -43.5t-50 -48.5t-54.5 -48t-54 -43.5t-49.5 -34.5h-100z" />
<glyph unicode="&#xdb;" horiz-adv-x="1393" d="M168 506v788h197v-780q0 -92 24 -161.5t68.5 -116t107 -70t140.5 -23.5q73 0 133 22.5t102.5 67t66 112t23.5 157.5v792h195v-768q0 -137 -37 -240t-107 -171.5t-170 -103t-225 -34.5q-119 0 -214.5 33.5t-163 100t-104 165.5t-36.5 230zM393 1380v21q22 21 49 51.5 t54.5 64.5t53 68t44.5 62h219q18 -28 43 -62t52.5 -68t54.5 -64.5t48 -51.5v-21h-100q-21 12 -49 29.5t-57 36.5t-56 38t-47 34q-21 -15 -48 -34.5t-56 -38.5t-56.5 -36t-48.5 -29h-100z" />
<glyph unicode="&#xdc;" horiz-adv-x="1393" d="M168 506v788h197v-780q0 -92 24 -161.5t68.5 -116t107 -70t140.5 -23.5q73 0 133 22.5t102.5 67t66 112t23.5 157.5v792h195v-768q0 -137 -37 -240t-107 -171.5t-170 -103t-225 -34.5q-119 0 -214.5 33.5t-163 100t-104 165.5t-36.5 230zM409 1497q0 46 29.5 75t85.5 29 q59 0 91 -29t32 -75q0 -42 -31 -72.5t-90 -30.5q-56 0 -86.5 30.5t-30.5 72.5zM758 1497q0 46 29.5 75t84.5 29q60 0 92.5 -29t32.5 -75q0 -42 -31 -72.5t-90 -30.5q-57 0 -87.5 30.5t-30.5 72.5z" />
<glyph unicode="&#xdd;" horiz-adv-x="1077" d="M-2 1294h219l270 -483q6 -10 13 -24l14.5 -29t14.5 -30.5t12 -27.5q5 13 11 28t12.5 30t13 28.5t12.5 22.5l282 485h207l-442 -749v-545h-197v539zM434 1380v23q20 21 42.5 51.5t44 64t41 67.5t34.5 61h215v-15q-10 -14 -28 -34t-41 -43.5t-50 -48.5t-54.5 -48t-54 -43.5 t-49.5 -34.5h-100z" />
<glyph unicode="&#xde;" horiz-adv-x="1049" d="M178 0v1294h197v-260h67q114 0 209 -17.5t164 -58.5t107.5 -108.5t38.5 -167.5q0 -92 -36.5 -168.5t-109.5 -132t-183 -86t-257 -31.5v-264h-197zM375 436h63q151 0 235.5 60.5t84.5 175.5q0 51 -17.5 88t-55.5 61t-97.5 35.5t-143.5 11.5h-69v-432z" />
<glyph unicode="&#xdf;" horiz-adv-x="1042" d="M154 0v942q0 84 25.5 152t73.5 116t117 74.5t156 26.5q78 0 142.5 -21t111 -60.5t72 -95.5t25.5 -126q0 -109 -50.5 -186t-144.5 -122q143 -38 217 -126t74 -228q0 -81 -27 -148t-76 -115t-117.5 -74.5t-152.5 -26.5q-100 0 -186 30v160q48 -17 89 -27t83 -10 q44 0 79 14.5t60.5 41.5t39 65t13.5 84q0 59 -23 105t-66.5 80t-105 55t-139.5 28v148q56 8 100.5 28.5t75.5 51.5t47.5 71t16.5 86q0 73 -42 118.5t-118 45.5q-89 0 -134.5 -59t-45.5 -180v-918h-190z" />
<glyph unicode="&#xe0;" horiz-adv-x="958" d="M86 233q0 134 102.5 205.5t303.5 71.5q30 0 59.5 -1.5t64.5 -4.5q0 91 -38 139.5t-125 48.5q-62 0 -126.5 -15.5t-127.5 -41.5v149q55 26 125.5 41t136.5 15q85 0 150 -16.5t109 -55t66.5 -101.5t22.5 -155v-317q0 -36 18.5 -53t38.5 -17t37 1.5t39 6.5v-115 q-25 -18 -61.5 -27t-79.5 -9q-37 0 -65 7.5t-48 21t-33.5 32.5t-21.5 43q-48 -44 -113 -74t-155 -30q-70 0 -122.5 19t-87 53t-52 79.5t-17.5 99.5zM195 1223v14h217q15 -32 34.5 -72.5t41 -82t43.5 -79t41 -63.5v-22h-105q-21 17 -47 41.5t-52.5 52.5t-53 58t-49.5 58.5 t-41.5 53t-28.5 41.5zM283 240q0 -51 30.5 -83t85.5 -32q56 0 114 25t103 67v160q-23 2 -51 3t-59 1q-67 0 -110 -12t-68 -32t-35 -45t-10 -52z" />
<glyph unicode="&#xe1;" horiz-adv-x="958" d="M86 233q0 134 102.5 205.5t303.5 71.5q30 0 59.5 -1.5t64.5 -4.5q0 91 -38 139.5t-125 48.5q-62 0 -126.5 -15.5t-127.5 -41.5v149q55 26 125.5 41t136.5 15q85 0 150 -16.5t109 -55t66.5 -101.5t22.5 -155v-317q0 -36 18.5 -53t38.5 -17t37 1.5t39 6.5v-115 q-25 -18 -61.5 -27t-79.5 -9q-37 0 -65 7.5t-48 21t-33.5 32.5t-21.5 43q-48 -44 -113 -74t-155 -30q-70 0 -122.5 19t-87 53t-52 79.5t-17.5 99.5zM283 240q0 -51 30.5 -83t85.5 -32q56 0 114 25t103 67v160q-23 2 -51 3t-59 1q-67 0 -110 -12t-68 -32t-35 -45t-10 -52z M365 918v22q19 26 41 63.5t43.5 79t41 82t34.5 72.5h217v-14q-10 -17 -28.5 -41.5t-41.5 -53t-49.5 -58.5t-53.5 -58t-52.5 -52.5t-47.5 -41.5h-104z" />
<glyph unicode="&#xe2;" horiz-adv-x="958" d="M86 233q0 134 102.5 205.5t303.5 71.5q30 0 59.5 -1.5t64.5 -4.5q0 91 -38 139.5t-125 48.5q-62 0 -126.5 -15.5t-127.5 -41.5v149q55 26 125.5 41t136.5 15q85 0 150 -16.5t109 -55t66.5 -101.5t22.5 -155v-317q0 -36 18.5 -53t38.5 -17t37 1.5t39 6.5v-115 q-25 -18 -61.5 -27t-79.5 -9q-37 0 -65 7.5t-48 21t-33.5 32.5t-21.5 43q-48 -44 -113 -74t-155 -30q-70 0 -122.5 19t-87 53t-52 79.5t-17.5 99.5zM189 918v20q21 26 47.5 63.5t53.5 78.5t53 82t45 75h225q20 -37 45.5 -79.5t51.5 -83t51.5 -76t45.5 -60.5v-20h-100 q-24 19 -53.5 43t-58 49t-54 49t-43.5 43q-18 -19 -44.5 -43.5t-55 -49.5t-57.5 -49t-52 -42h-100zM283 240q0 -51 30.5 -83t85.5 -32q56 0 114 25t103 67v160q-23 2 -51 3t-59 1q-67 0 -110 -12t-68 -32t-35 -45t-10 -52z" />
<glyph unicode="&#xe3;" horiz-adv-x="958" d="M86 233q0 134 102.5 205.5t303.5 71.5q30 0 59.5 -1.5t64.5 -4.5q0 91 -38 139.5t-125 48.5q-62 0 -126.5 -15.5t-127.5 -41.5v149q55 26 125.5 41t136.5 15q85 0 150 -16.5t109 -55t66.5 -101.5t22.5 -155v-317q0 -36 18.5 -53t38.5 -17t37 1.5t39 6.5v-115 q-25 -18 -61.5 -27t-79.5 -9q-37 0 -65 7.5t-48 21t-33.5 32.5t-21.5 43q-48 -44 -113 -74t-155 -30q-70 0 -122.5 19t-87 53t-52 79.5t-17.5 99.5zM163 915q11 111 61 177.5t136 66.5q43 0 78 -16t69 -35q26 -14 50.5 -26.5t40.5 -12.5q24 0 43.5 21t31.5 69h117 q-4 -54 -19 -98.5t-39.5 -76t-58.5 -49t-75 -17.5q-39 0 -78 17t-70 34q-25 14 -50 26.5t-40 12.5q-23 0 -41 -21.5t-31 -71.5h-125zM283 240q0 -51 30.5 -83t85.5 -32q56 0 114 25t103 67v160q-23 2 -51 3t-59 1q-67 0 -110 -12t-68 -32t-35 -45t-10 -52z" />
<glyph unicode="&#xe4;" horiz-adv-x="958" d="M86 233q0 134 102.5 205.5t303.5 71.5q30 0 59.5 -1.5t64.5 -4.5q0 91 -38 139.5t-125 48.5q-62 0 -126.5 -15.5t-127.5 -41.5v149q55 26 125.5 41t136.5 15q85 0 150 -16.5t109 -55t66.5 -101.5t22.5 -155v-317q0 -36 18.5 -53t38.5 -17t37 1.5t39 6.5v-115 q-25 -18 -61.5 -27t-79.5 -9q-37 0 -65 7.5t-48 21t-33.5 32.5t-21.5 43q-48 -44 -113 -74t-155 -30q-70 0 -122.5 19t-87 53t-52 79.5t-17.5 99.5zM186 1055q0 46 29.5 75t85.5 29q59 0 91 -29t32 -75q0 -42 -31 -72.5t-90 -30.5q-56 0 -86.5 30.5t-30.5 72.5zM283 240 q0 -51 30.5 -83t85.5 -32q56 0 114 25t103 67v160q-23 2 -51 3t-59 1q-67 0 -110 -12t-68 -32t-35 -45t-10 -52zM535 1055q0 46 29.5 75t84.5 29q60 0 92.5 -29t32.5 -75q0 -42 -31 -72.5t-90 -30.5q-57 0 -87.5 30.5t-30.5 72.5z" />
<glyph unicode="&#xe5;" horiz-adv-x="958" d="M86 233q0 134 102.5 205.5t303.5 71.5q30 0 59.5 -1.5t64.5 -4.5q0 91 -38 139.5t-125 48.5q-62 0 -126.5 -15.5t-127.5 -41.5v149q55 26 125.5 41t136.5 15q85 0 150 -16.5t109 -55t66.5 -101.5t22.5 -155v-317q0 -36 18.5 -53t38.5 -17t37 1.5t39 6.5v-115 q-25 -18 -61.5 -27t-79.5 -9q-37 0 -65 7.5t-48 21t-33.5 32.5t-21.5 43q-48 -44 -113 -74t-155 -30q-70 0 -122.5 19t-87 53t-52 79.5t-17.5 99.5zM262 1118q0 48 16 85.5t45.5 63.5t70 40t89.5 14t90.5 -14t71.5 -40t47 -63t17 -84q0 -49 -16.5 -88t-46.5 -66t-71.5 -41 t-91.5 -14q-49 0 -89.5 14t-70 41t-45.5 65.5t-16 86.5zM283 240q0 -51 30.5 -83t85.5 -32q56 0 114 25t103 67v160q-23 2 -51 3t-59 1q-67 0 -110 -12t-68 -32t-35 -45t-10 -52zM397 1118q0 -45 22 -69.5t64 -24.5q38 0 62 24.5t24 69.5q0 44 -24 68t-62 24 q-35 0 -60.5 -24t-25.5 -68z" />
<glyph unicode="&#xe6;" horiz-adv-x="1534" d="M86 233q0 134 102.5 205.5t303.5 71.5q30 0 59.5 -1.5t64.5 -4.5q0 91 -38 139.5t-125 48.5q-62 0 -126.5 -15.5t-127.5 -41.5v149q55 26 125.5 41t136.5 15q102 0 174.5 -25t116.5 -82q55 51 131.5 79t169.5 28q95 0 166.5 -27.5t120.5 -78.5t73.5 -125t24.5 -167v-82 h-629q5 -51 26.5 -94.5t58.5 -74.5t86.5 -48.5t109.5 -17.5q35 0 74.5 6.5t81 19t83 30.5t78.5 42v-151q-75 -44 -159.5 -67t-192.5 -23q-121 0 -210 41.5t-145 119.5q-31 -31 -66.5 -60t-76.5 -51.5t-89 -36t-103 -13.5q-70 0 -122.5 19t-87 53t-52 79.5t-17.5 99.5z M283 240q0 -51 30.5 -83t85.5 -32q27 0 60.5 9.5t68 25t66 37t55.5 45.5q-11 31 -17 64.5t-9 70.5q-23 2 -55.5 3t-61.5 1q-67 0 -110 -12t-68 -32t-35 -45t-10 -52zM813 500h434q-5 93 -56 141.5t-140 48.5q-96 0 -157 -48.5t-81 -141.5z" />
<glyph unicode="&#xe7;" horiz-adv-x="899" d="M96 403q0 108 36 189.5t97 136.5t143 83t173 28q66 0 137.5 -16.5t130.5 -53.5v-166q-63 40 -129.5 61t-138.5 21q-51 0 -97.5 -15.5t-81 -50t-55 -88.5t-20.5 -131q0 -70 19.5 -120.5t51.5 -83t74.5 -47.5t87.5 -15q89 0 157.5 25.5t131.5 62.5v-157q-60 -41 -135 -62.5 t-172 -21.5q-90 0 -165.5 28.5t-129.5 83t-84.5 132.5t-30.5 177zM336 -258q19 -5 47.5 -8.5t46.5 -3.5q42 0 66 13t24 42q0 31 -38 52.5t-107 27.5l88 170h145l-49 -101q26 -8 48 -20t39 -29.5t26.5 -42t9.5 -55.5q0 -85 -56.5 -132.5t-182.5 -47.5q-26 0 -57 3.5t-50 8.5 v123z" />
<glyph unicode="&#xe8;" horiz-adv-x="1008" d="M96 416q0 95 31 173.5t87.5 134t135.5 86t176 30.5q95 0 166.5 -27.5t120.5 -78.5t73.5 -125t24.5 -167v-82h-628q5 -51 26.5 -94.5t58 -74.5t86 -48.5t109.5 -17.5q35 0 74.5 6.5t81 19t83 30.5t79.5 42v-151q-76 -43 -160.5 -66.5t-192.5 -23.5q-100 0 -180 29.5 t-136 85.5t-86 136.5t-30 182.5zM285 1223v14h217q15 -32 34.5 -72.5t41 -82t43.5 -79t41 -63.5v-22h-105q-21 17 -47 41.5t-52.5 52.5t-53 58t-49.5 58.5t-41.5 53t-28.5 41.5zM287 500h434q-5 93 -56 141.5t-141 48.5q-96 0 -156.5 -48.5t-80.5 -141.5z" />
<glyph unicode="&#xe9;" horiz-adv-x="1008" d="M96 416q0 95 31 173.5t87.5 134t135.5 86t176 30.5q95 0 166.5 -27.5t120.5 -78.5t73.5 -125t24.5 -167v-82h-628q5 -51 26.5 -94.5t58 -74.5t86 -48.5t109.5 -17.5q35 0 74.5 6.5t81 19t83 30.5t79.5 42v-151q-76 -43 -160.5 -66.5t-192.5 -23.5q-100 0 -180 29.5 t-136 85.5t-86 136.5t-30 182.5zM287 500h434q-5 93 -56 141.5t-141 48.5q-96 0 -156.5 -48.5t-80.5 -141.5zM420 918v22q19 26 41 63.5t43.5 79t41 82t34.5 72.5h217v-14q-10 -17 -28.5 -41.5t-41.5 -53t-49.5 -58.5t-53.5 -58t-52.5 -52.5t-47.5 -41.5h-104z" />
<glyph unicode="&#xea;" horiz-adv-x="1008" d="M96 416q0 95 31 173.5t87.5 134t135.5 86t176 30.5q95 0 166.5 -27.5t120.5 -78.5t73.5 -125t24.5 -167v-82h-628q5 -51 26.5 -94.5t58 -74.5t86 -48.5t109.5 -17.5q35 0 74.5 6.5t81 19t83 30.5t79.5 42v-151q-76 -43 -160.5 -66.5t-192.5 -23.5q-100 0 -180 29.5 t-136 85.5t-86 136.5t-30 182.5zM225 918v20q21 26 47.5 63.5t53.5 78.5t53 82t45 75h225q20 -37 45.5 -79.5t51.5 -83t51.5 -76t45.5 -60.5v-20h-100q-24 19 -53.5 43t-58 49t-54 49t-43.5 43q-18 -19 -44.5 -43.5t-55 -49.5t-57.5 -49t-52 -42h-100zM287 500h434 q-5 93 -56 141.5t-141 48.5q-96 0 -156.5 -48.5t-80.5 -141.5z" />
<glyph unicode="&#xeb;" horiz-adv-x="1008" d="M96 416q0 95 31 173.5t87.5 134t135.5 86t176 30.5q95 0 166.5 -27.5t120.5 -78.5t73.5 -125t24.5 -167v-82h-628q5 -51 26.5 -94.5t58 -74.5t86 -48.5t109.5 -17.5q35 0 74.5 6.5t81 19t83 30.5t79.5 42v-151q-76 -43 -160.5 -66.5t-192.5 -23.5q-100 0 -180 29.5 t-136 85.5t-86 136.5t-30 182.5zM243 1055q0 46 29.5 75t85.5 29q59 0 91 -29t32 -75q0 -42 -31 -72.5t-90 -30.5q-56 0 -86.5 30.5t-30.5 72.5zM287 500h434q-5 93 -56 141.5t-141 48.5q-96 0 -156.5 -48.5t-80.5 -141.5zM592 1055q0 46 29.5 75t84.5 29q60 0 92.5 -29 t32.5 -75q0 -42 -31 -72.5t-90 -30.5q-57 0 -87.5 30.5t-30.5 72.5z" />
<glyph unicode="&#xec;" horiz-adv-x="500" d="M-32 1223v14h217q15 -32 34.5 -72.5t41 -82t43.5 -79t41 -63.5v-22h-105q-21 17 -47 41.5t-52.5 52.5t-53 58t-49.5 58.5t-41.5 53t-28.5 41.5zM154 0v821h192v-821h-192z" />
<glyph unicode="&#xed;" horiz-adv-x="500" d="M152 918v22q19 26 41 63.5t43.5 79t41 82t34.5 72.5h217v-14q-10 -17 -28.5 -41.5t-41.5 -53t-49.5 -58.5t-53.5 -58t-52.5 -52.5t-47.5 -41.5h-104zM154 0v821h192v-821h-192z" />
<glyph unicode="&#xee;" horiz-adv-x="500" d="M-60 918v20q21 26 47.5 63.5t53.5 78.5t53 82t45 75h225q20 -37 45.5 -79.5t51.5 -83t51.5 -76t45.5 -60.5v-20h-100q-24 19 -53.5 43t-58 49t-54 49t-43.5 43q-18 -19 -44.5 -43.5t-55 -49.5t-57.5 -49t-52 -42h-100zM154 0v821h192v-821h-192z" />
<glyph unicode="&#xef;" horiz-adv-x="500" d="M-44 1055q0 46 29.5 75t85.5 29q59 0 91 -29t32 -75q0 -42 -31 -72.5t-90 -30.5q-56 0 -86.5 30.5t-30.5 72.5zM154 0v821h192v-821h-192zM305 1055q0 46 29.5 75t84.5 29q60 0 92.5 -29t32.5 -75q0 -42 -31 -72.5t-90 -30.5q-57 0 -87.5 30.5t-30.5 72.5z" />
<glyph unicode="&#xf0;" horiz-adv-x="1075" d="M96 403q0 103 30 184t85.5 137.5t134.5 86t176 29.5q56 0 110 -10.5t91 -28.5q-49 125 -150 223q-34 -18 -73 -37.5t-79 -39t-78.5 -39t-72.5 -36.5v150l185 88q-41 23 -77 39.5t-73 32.5v137q90 -22 166.5 -54.5t138.5 -74.5q30 15 65 31.5t70.5 33.5t69.5 33.5t62 30.5 v-145l-152 -72q112 -108 177 -255.5t65 -338.5q0 -124 -31 -221.5t-88 -165t-138.5 -103.5t-183.5 -36q-98 0 -177.5 30t-135.5 84.5t-86.5 132.5t-30.5 174zM293 410q0 -131 63.5 -204t175.5 -73q58 0 103 25t76 71t47 109.5t16 140.5q0 38 -2 74.5t-8 54.5 q-20 19 -47.5 34t-57.5 25t-61.5 15.5t-58.5 5.5q-116 0 -181 -71t-65 -207z" />
<glyph unicode="&#xf1;" horiz-adv-x="1030" d="M154 0v821h186l6 -82q21 20 47 38t57.5 32t68 22.5t77.5 8.5q153 0 226 -82t73 -238v-520h-193v508q0 87 -35.5 133.5t-107.5 46.5q-32 0 -62.5 -8t-57.5 -21.5t-50.5 -30t-42.5 -34.5v-594h-192zM223 915q11 111 61 177.5t136 66.5q43 0 78 -16t69 -35 q26 -14 50.5 -26.5t40.5 -12.5q24 0 43.5 21t31.5 69h117q-4 -54 -19 -98.5t-39.5 -76t-58.5 -49t-75 -17.5q-39 0 -78 17t-70 34q-25 14 -50 26.5t-40 12.5q-23 0 -41 -21.5t-31 -71.5h-125z" />
<glyph unicode="&#xf2;" horiz-adv-x="1063" d="M96 403q0 103 31 184t89.5 137.5t142 86t188.5 29.5q101 0 179 -29t131.5 -84t81.5 -134t28 -179q0 -97 -31 -177t-88 -136.5t-138.5 -87.5t-183.5 -31q-98 0 -177.5 30t-135.5 84.5t-86.5 132.5t-30.5 174zM289 1223v14h217q15 -32 34.5 -72.5t41 -82t43.5 -79t41 -63.5 v-22h-105q-21 17 -47 41.5t-52.5 52.5t-53 58t-49.5 58.5t-41.5 53t-28.5 41.5zM293 410q0 -65 17 -116.5t49 -87t77.5 -54.5t102.5 -19q115 0 175 72t60 209q0 136 -60 205t-175 69q-116 0 -181 -71t-65 -207z" />
<glyph unicode="&#xf3;" horiz-adv-x="1063" d="M96 403q0 103 31 184t89.5 137.5t142 86t188.5 29.5q101 0 179 -29t131.5 -84t81.5 -134t28 -179q0 -97 -31 -177t-88 -136.5t-138.5 -87.5t-183.5 -31q-98 0 -177.5 30t-135.5 84.5t-86.5 132.5t-30.5 174zM293 410q0 -65 17 -116.5t49 -87t77.5 -54.5t102.5 -19 q115 0 175 72t60 209q0 136 -60 205t-175 69q-116 0 -181 -71t-65 -207zM426 918v22q19 26 41 63.5t43.5 79t41 82t34.5 72.5h217v-14q-10 -17 -28.5 -41.5t-41.5 -53t-49.5 -58.5t-53.5 -58t-52.5 -52.5t-47.5 -41.5h-104z" />
<glyph unicode="&#xf4;" horiz-adv-x="1063" d="M96 403q0 103 31 184t89.5 137.5t142 86t188.5 29.5q101 0 179 -29t131.5 -84t81.5 -134t28 -179q0 -97 -31 -177t-88 -136.5t-138.5 -87.5t-183.5 -31q-98 0 -177.5 30t-135.5 84.5t-86.5 132.5t-30.5 174zM225 918v20q21 26 47.5 63.5t53.5 78.5t53 82t45 75h225 q20 -37 45.5 -79.5t51.5 -83t51.5 -76t45.5 -60.5v-20h-100q-24 19 -53.5 43t-58 49t-54 49t-43.5 43q-18 -19 -44.5 -43.5t-55 -49.5t-57.5 -49t-52 -42h-100zM293 410q0 -65 17 -116.5t49 -87t77.5 -54.5t102.5 -19q115 0 175 72t60 209q0 136 -60 205t-175 69 q-116 0 -181 -71t-65 -207z" />
<glyph unicode="&#xf5;" horiz-adv-x="1063" d="M96 403q0 103 31 184t89.5 137.5t142 86t188.5 29.5q101 0 179 -29t131.5 -84t81.5 -134t28 -179q0 -97 -31 -177t-88 -136.5t-138.5 -87.5t-183.5 -31q-98 0 -177.5 30t-135.5 84.5t-86.5 132.5t-30.5 174zM223 915q11 111 61 177.5t136 66.5q43 0 78 -16t69 -35 q26 -14 50.5 -26.5t40.5 -12.5q24 0 43.5 21t31.5 69h117q-4 -54 -19 -98.5t-39.5 -76t-58.5 -49t-75 -17.5q-39 0 -78 17t-70 34q-25 14 -50 26.5t-40 12.5q-23 0 -41 -21.5t-31 -71.5h-125zM293 410q0 -65 17 -116.5t49 -87t77.5 -54.5t102.5 -19q115 0 175 72t60 209 q0 136 -60 205t-175 69q-116 0 -181 -71t-65 -207z" />
<glyph unicode="&#xf6;" horiz-adv-x="1063" d="M96 403q0 103 31 184t89.5 137.5t142 86t188.5 29.5q101 0 179 -29t131.5 -84t81.5 -134t28 -179q0 -97 -31 -177t-88 -136.5t-138.5 -87.5t-183.5 -31q-98 0 -177.5 30t-135.5 84.5t-86.5 132.5t-30.5 174zM241 1055q0 46 29.5 75t85.5 29q59 0 91 -29t32 -75 q0 -42 -31 -72.5t-90 -30.5q-56 0 -86.5 30.5t-30.5 72.5zM293 410q0 -65 17 -116.5t49 -87t77.5 -54.5t102.5 -19q115 0 175 72t60 209q0 136 -60 205t-175 69q-116 0 -181 -71t-65 -207zM590 1055q0 46 29.5 75t84.5 29q60 0 92.5 -29t32.5 -75q0 -42 -31 -72.5t-90 -30.5 q-57 0 -87.5 30.5t-30.5 72.5z" />
<glyph unicode="&#xf7;" d="M80 475v160h874v-160h-874zM395 238q0 51 35.5 81.5t87.5 30.5q53 0 88 -30.5t35 -81.5q0 -23 -9.5 -43.5t-26 -36t-39 -24.5t-48.5 -9t-48.5 9t-39 24.5t-26 36t-9.5 43.5zM395 870q0 26 9.5 46.5t26 35.5t39 23t48.5 8t48.5 -8t39 -23t26 -35.5t9.5 -46.5 q0 -23 -9.5 -43.5t-26 -35.5t-39 -24t-48.5 -9t-48.5 9t-39 24t-26 35.5t-9.5 43.5z" />
<glyph unicode="&#xf8;" horiz-adv-x="1065" d="M84 -53l125 155q-56 57 -84.5 134.5t-28.5 166.5q0 103 31 184t89.5 137.5t142 86t188.5 29.5q56 0 106.5 -10.5t94.5 -28.5l55 73h178l-119 -155q56 -56 80.5 -131t24.5 -174q0 -97 -31 -177t-88 -136.5t-138.5 -87.5t-183.5 -31q-57 0 -110.5 11.5t-98.5 31.5l-57 -78 h-176zM293 410q0 -91 29 -154l323 414q-25 8 -49.5 13t-56.5 5q-116 0 -181 -71t-65 -207zM424 158q28 -14 54 -19.5t61 -5.5q115 0 175 72t60 209q0 48 -8 87t-21 70z" />
<glyph unicode="&#xf9;" horiz-adv-x="1030" d="M135 301v520h193v-508q0 -86 35.5 -133t107.5 -47q32 0 62.5 8t57.5 21.5t50.5 30t42.5 34.5v594h193v-821h-187l-6 82q-21 -19 -47 -37t-57.5 -32t-68 -22.5t-77.5 -8.5q-153 0 -226 81.5t-73 237.5zM256 1223v14h217q15 -32 34.5 -72.5t41 -82t43.5 -79t41 -63.5v-22 h-105q-21 17 -47 41.5t-52.5 52.5t-53 58t-49.5 58.5t-41.5 53t-28.5 41.5z" />
<glyph unicode="&#xfa;" horiz-adv-x="1030" d="M135 301v520h193v-508q0 -86 35.5 -133t107.5 -47q32 0 62.5 8t57.5 21.5t50.5 30t42.5 34.5v594h193v-821h-187l-6 82q-21 -19 -47 -37t-57.5 -32t-68 -22.5t-77.5 -8.5q-153 0 -226 81.5t-73 237.5zM393 918v22q19 26 41 63.5t43.5 79t41 82t34.5 72.5h217v-14 q-10 -17 -28.5 -41.5t-41.5 -53t-49.5 -58.5t-53.5 -58t-52.5 -52.5t-47.5 -41.5h-104z" />
<glyph unicode="&#xfb;" horiz-adv-x="1030" d="M135 301v520h193v-508q0 -86 35.5 -133t107.5 -47q32 0 62.5 8t57.5 21.5t50.5 30t42.5 34.5v594h193v-821h-187l-6 82q-21 -19 -47 -37t-57.5 -32t-68 -22.5t-77.5 -8.5q-153 0 -226 81.5t-73 237.5zM201 918v20q21 26 47.5 63.5t53.5 78.5t53 82t45 75h225 q20 -37 45.5 -79.5t51.5 -83t51.5 -76t45.5 -60.5v-20h-100q-24 19 -53.5 43t-58 49t-54 49t-43.5 43q-18 -19 -44.5 -43.5t-55 -49.5t-57.5 -49t-52 -42h-100z" />
<glyph unicode="&#xfc;" horiz-adv-x="1030" d="M135 301v520h193v-508q0 -86 35.5 -133t107.5 -47q32 0 62.5 8t57.5 21.5t50.5 30t42.5 34.5v594h193v-821h-187l-6 82q-21 -19 -47 -37t-57.5 -32t-68 -22.5t-77.5 -8.5q-153 0 -226 81.5t-73 237.5zM211 1055q0 46 29.5 75t85.5 29q59 0 91 -29t32 -75q0 -42 -31 -72.5 t-90 -30.5q-56 0 -86.5 30.5t-30.5 72.5zM560 1055q0 46 29.5 75t84.5 29q60 0 92.5 -29t32.5 -75q0 -42 -31 -72.5t-90 -30.5q-57 0 -87.5 30.5t-30.5 72.5z" />
<glyph unicode="&#xfd;" horiz-adv-x="862" d="M8 821h211l203 -528q5 -11 9 -25.5t7 -25.5q3 11 7.5 23.5t9.5 23.5l198 532h199l-299 -735q-17 -44 -37 -109.5t-41.5 -143t-42.5 -154.5t-39 -152h-196q18 73 35 133.5t36 119.5t40 117t46 130q-85 195 -173.5 397t-172.5 397zM338 918v22q19 26 41 63.5t43.5 79t41 82 t34.5 72.5h217v-14q-10 -17 -28.5 -41.5t-41.5 -53t-49.5 -58.5t-53.5 -58t-52.5 -52.5t-47.5 -41.5h-104z" />
<glyph unicode="&#xfe;" horiz-adv-x="1085" d="M154 -473v1767h192v-360q0 -23 -0.5 -50.5t-1 -53t-1.5 -47.5t-3 -35q25 19 53 36t60.5 29.5t70 19.5t82.5 7q81 0 151 -27.5t121 -81t80 -132.5t29 -183q0 -96 -28 -175.5t-81.5 -136.5t-131.5 -88.5t-177 -31.5q-62 0 -121 14t-102 37v-508h-192zM346 182 q23 -20 72.5 -39.5t116.5 -19.5q38 0 83 12.5t84 45t65 90t26 147.5q0 65 -16 116t-45.5 86.5t-70 54.5t-88.5 19q-39 0 -73 -9.5t-62.5 -24t-51.5 -31t-40 -31.5v-416z" />
<glyph unicode="&#xff;" horiz-adv-x="862" d="M8 821h211l203 -528q5 -11 9 -25.5t7 -25.5q3 11 7.5 23.5t9.5 23.5l198 532h199l-299 -735q-17 -44 -37 -109.5t-41.5 -143t-42.5 -154.5t-39 -152h-196q18 73 35 133.5t36 119.5t40 117t46 130q-85 195 -173.5 397t-172.5 397zM176 1055q0 46 29.5 75t85.5 29 q59 0 91 -29t32 -75q0 -42 -31 -72.5t-90 -30.5q-56 0 -86.5 30.5t-30.5 72.5zM525 1055q0 46 29.5 75t84.5 29q60 0 92.5 -29t32.5 -75q0 -42 -31 -72.5t-90 -30.5q-57 0 -87.5 30.5t-30.5 72.5z" />
<glyph unicode="&#x152;" horiz-adv-x="1708" d="M115 633q0 154 42.5 278.5t123.5 212t197.5 134.5t264.5 47q36 0 86 -2t97 -9h618v-168h-450v-393h452v-166h-452v-401h454v-166h-622q-44 -6 -96.5 -8t-108.5 -2q-138 0 -250 45.5t-191 129.5t-122 202.5t-43 265.5zM319 645q0 -112 28 -203t80.5 -155t127 -98.5 t166.5 -34.5q97 0 176 12v962q-32 5 -74.5 10t-89.5 5q-94 0 -170.5 -36t-130.5 -101t-83.5 -157t-29.5 -204z" />
<glyph unicode="&#x153;" horiz-adv-x="1616" d="M96 403q0 103 30 184t86 137.5t136 86t180 29.5q109 0 185 -31.5t127 -97.5q54 63 131.5 96t177.5 33q91 0 160 -27.5t116 -78.5t71 -125t24 -167v-82h-590q5 -51 25.5 -94t54 -74.5t79.5 -49t101 -17.5q33 0 71 7.5t77 21t78 32.5t73 43v-157q-35 -24 -71.5 -41t-77 -28 t-87 -16t-100.5 -5q-213 0 -317 135q-56 -65 -139 -100t-189 -35q-94 0 -170 30t-130 84.5t-83 132.5t-29 174zM293 410q0 -65 16 -116.5t45.5 -87t71.5 -54.5t94 -19q107 0 163 72t56 209q0 140 -58 207t-161 67q-106 0 -166.5 -71t-60.5 -207zM934 500h395 q-5 93 -51 141.5t-131 48.5q-88 0 -143 -48.5t-70 -141.5z" />
<glyph unicode="&#x178;" horiz-adv-x="1077" d="M-2 1294h219l270 -483q6 -10 13 -24l14.5 -29t14.5 -30.5t12 -27.5q5 13 11 28t12.5 30t13 28.5t12.5 22.5l282 485h207l-442 -749v-545h-197v539zM266 1497q0 46 29.5 75t85.5 29q59 0 91 -29t32 -75q0 -42 -31 -72.5t-90 -30.5q-56 0 -86.5 30.5t-30.5 72.5zM615 1497 q0 46 29.5 75t84.5 29q60 0 92.5 -29t32.5 -75q0 -42 -31 -72.5t-90 -30.5q-57 0 -87.5 30.5t-30.5 72.5z" />
<glyph unicode="&#x2c6;" horiz-adv-x="696" d="M39 918v20q21 26 47.5 63.5t53.5 78.5t53 82t45 75h225q20 -37 45.5 -79.5t51.5 -83t51.5 -76t45.5 -60.5v-20h-100q-24 19 -53.5 43t-58 49t-54 49t-43.5 43q-18 -19 -44.5 -43.5t-55 -49.5t-57.5 -49t-52 -42h-100z" />
<glyph unicode="&#x2dc;" horiz-adv-x="662" d="M16 915q11 111 61 177.5t136 66.5q43 0 78 -16t69 -35q26 -14 50.5 -26.5t40.5 -12.5q24 0 43.5 21t31.5 69h117q-4 -54 -19 -98.5t-39.5 -76t-58.5 -49t-75 -17.5q-39 0 -78 17t-70 34q-25 14 -50 26.5t-40 12.5q-23 0 -41 -21.5t-31 -71.5h-125z" />
<glyph unicode="&#x2000;" horiz-adv-x="823" />
<glyph unicode="&#x2001;" horiz-adv-x="1647" />
<glyph unicode="&#x2002;" horiz-adv-x="823" />
<glyph unicode="&#x2003;" horiz-adv-x="1647" />
<glyph unicode="&#x2004;" horiz-adv-x="549" />
<glyph unicode="&#x2005;" horiz-adv-x="411" />
<glyph unicode="&#x2006;" horiz-adv-x="274" />
<glyph unicode="&#x2007;" horiz-adv-x="274" />
<glyph unicode="&#x2008;" horiz-adv-x="205" />
<glyph unicode="&#x2009;" horiz-adv-x="329" />
<glyph unicode="&#x200a;" horiz-adv-x="91" />
<glyph unicode="&#x2010;" horiz-adv-x="735" d="M131 352v170h473v-170h-473z" />
<glyph unicode="&#x2011;" horiz-adv-x="735" d="M131 352v170h473v-170h-473z" />
<glyph unicode="&#x2012;" horiz-adv-x="735" d="M131 352v170h473v-170h-473z" />
<glyph unicode="&#x2013;" horiz-adv-x="963" d="M6 362v150h950v-150h-950z" />
<glyph unicode="&#x2014;" horiz-adv-x="1884" d="M16 362v150h1852v-150h-1852z" />
<glyph unicode="&#x2018;" horiz-adv-x="401" d="M31 829q14 50 37 109t49 121t53.5 122.5t50.5 112.5h150q-16 -54 -33 -114.5t-32 -122t-27.5 -120t-20.5 -108.5h-227z" />
<glyph unicode="&#x2019;" horiz-adv-x="401" d="M29 827q18 54 34.5 114.5t30.5 122t26 120t19 108.5h230q-14 -51 -37 -110.5t-49.5 -121t-54.5 -121.5t-52 -112h-147z" />
<glyph unicode="&#x201a;" horiz-adv-x="469" d="M29 -268q18 54 34.5 114.5t30.5 121.5t26 120t19 109h230q-14 -51 -37 -111t-49.5 -121.5t-54.5 -121.5t-52 -111h-147z" />
<glyph unicode="&#x201c;" horiz-adv-x="768" d="M31 829q14 50 37 109t49 121t53.5 122.5t50.5 112.5h150q-16 -54 -33 -114.5t-32 -122t-27.5 -120t-20.5 -108.5h-227zM395 829q14 50 37 109t49.5 121t54 122.5t50.5 112.5h149q-16 -54 -33 -114.5t-32 -122t-27 -120t-20 -108.5h-228z" />
<glyph unicode="&#x201d;" horiz-adv-x="770" d="M37 829q18 52 34.5 112.5t30.5 122t26 121t19 109.5h228q-15 -50 -36.5 -108.5t-47 -120t-53.5 -122t-54 -114.5h-147zM399 829q18 52 34.5 112.5t31 122t26 121t19.5 109.5h227q-14 -50 -35.5 -109t-47.5 -120.5t-53.5 -122t-53.5 -113.5h-148z" />
<glyph unicode="&#x201e;" horiz-adv-x="842" d="M29 -268q18 54 34.5 114.5t30.5 121.5t26 120t19 109h230q-14 -51 -37 -111t-49.5 -121.5t-54.5 -121.5t-52 -111h-147zM397 -268q18 54 34.5 114.5t31 121.5t26 120t19.5 109h229q-14 -51 -37 -111t-49.5 -121.5t-54 -121.5t-51.5 -111h-148z" />
<glyph unicode="&#x2022;" horiz-adv-x="780" d="M141 621q0 51 19 95t52.5 76.5t79 51t97.5 18.5t97.5 -18.5t79.5 -51t53.5 -76.5t19.5 -95q0 -50 -19.5 -94t-53.5 -77t-79.5 -52t-97.5 -19t-97.5 19t-79 52t-52.5 77t-19 94z" />
<glyph unicode="&#x2026;" horiz-adv-x="1407" d="M100 117q0 27 10 49.5t28 39.5t42.5 26.5t52.5 9.5q29 0 54 -9.5t43 -26.5t28.5 -39.5t10.5 -49.5q0 -26 -10.5 -49t-28.5 -40.5t-43 -27.5t-54 -10q-28 0 -52.5 10t-42.5 27.5t-28 40.5t-10 49zM569 117q0 27 10.5 49.5t29 39.5t43.5 26.5t53 9.5q27 0 51.5 -9.5 t42.5 -26.5t28.5 -39.5t10.5 -49.5q0 -26 -10.5 -49t-28.5 -40.5t-42.5 -27.5t-51.5 -10q-28 0 -53 10t-43.5 27.5t-29 40.5t-10.5 49zM1038 117q0 27 10.5 49.5t29 39.5t43.5 26.5t53 9.5q27 0 51.5 -9.5t42.5 -26.5t28.5 -39.5t10.5 -49.5q0 -26 -10.5 -49t-28.5 -40.5 t-42.5 -27.5t-51.5 -10q-28 0 -53 10t-43.5 27.5t-29 40.5t-10.5 49z" />
<glyph unicode="&#x202f;" horiz-adv-x="329" />
<glyph unicode="&#x2039;" horiz-adv-x="608" d="M76 403v31q37 41 75.5 86t76 91.5t71.5 92.5t61 89h172v-43q-49 -69 -116.5 -156t-143.5 -174q76 -87 144 -174.5t116 -155.5v-45h-174q-28 45 -62.5 91.5t-71.5 93t-75 90.5t-73 83z" />
<glyph unicode="&#x203a;" horiz-adv-x="608" d="M76 45v45q24 35 53.5 74.5t62 82.5t68.5 87t74 86q-38 42 -74.5 86t-69.5 87t-62 83t-52 74v43h174q29 -45 63 -91.5t71 -92.5t75 -90t73 -83v-33q-37 -40 -75.5 -84.5t-75.5 -91t-71 -93t-62 -89.5h-172z" />
<glyph unicode="&#x205f;" horiz-adv-x="411" />
<glyph unicode="&#x20ac;" d="M43 700l49 146h129q19 107 58 192.5t96.5 146.5t134.5 93.5t172 32.5q80 0 150.5 -17t132.5 -49v-170q-65 32 -130 51t-143 19q-105 0 -174 -77t-94 -222h475l-49 -146h-442q-4 -15 -4.5 -34.5t-0.5 -30.5q0 -4 0.5 -12t1.5 -17t1.5 -17.5t1.5 -13.5h440l-47 -145h-379 q9 -61 31 -112.5t56.5 -89.5t80 -59.5t102.5 -21.5q69 0 144.5 24.5t144.5 61.5v-167q-66 -41 -145 -62.5t-170 -21.5q-181 0 -294 116.5t-153 331.5h-174l47 145h115q-2 8 -3 26.5t-1 35.5q0 22 1 40t3 23h-164z" />
<glyph unicode="&#x2122;" horiz-adv-x="1466" d="M70 1176v118h475v-118h-166v-498h-146v498h-163zM565 678l56 616h182l141 -383q2 -5 4.5 -14.5t5 -20t4.5 -20.5t3 -18q2 15 6.5 39t9.5 36l135 381h180l49 -616h-145l-16 268q-1 14 -2 35t-2 42.5t-1.5 41t-0.5 31.5l-148 -418h-133l-156 420q0 -12 -0.5 -30t-2 -38.5 t-2.5 -42.5t-3 -41l-18 -268h-146z" />
<glyph unicode="&#xe000;" horiz-adv-x="820" d="M0 0v820h820v-820h-820z" />
</font>
</defs>
</svg>
